img image001 image001 image001 image001 image001 image001 image001 image001 image001 image001 image001 image001 image001 image001 image001

Planets Sun Sun Sun
Статистика раздачи
Автор: Снежана | Размер: 2.9 ГБ | Добавлен: 25 июл 2013
Раздают: 288    Качают: 35
Скачать торрент
Скачать торрент
Описание торрента

СообщениеДобавлено: 25 июл 2013 

#77
Год выпуска: 2012
Выпущено: Россия, Беларусь / Беларусьфильм

Жанр: боевик, военный
Продолжительность: 00:46:35 + 00:46:46 + 00:46:46 + 00:48:26

Перевод: не требуется
Оригинальная аудиодорожка: русский
Субтитры: нет

Режиссер: Александр Даруга

В ролях: Павел Трубинер, Анатолий Руденко, Евгений Никитин, Карл Ахляйтнер, Жан-Марк Биркхольц, Игорь Сигов, Манфред Фау, Вероника Пляшкевич, Иван Мацкевич, Олег Ткачёв...

Описание: 1944 год, Белоруссия. Немецкие диверсанты, действующие в советском тылу, совершают нападение на машину представителя Генерального штаба Красной Армии и похищают важные документы. Пытаясь перейти линию фронта, командир группы немецкий полковник Нойбер прячет документы в лесу и попадает в плен. Теперь только он знает место тайника с секретным портфелем. По поручению Гиммлера, Скорцени готовит новый отряд специально подготовленных бойцов, цель которого — освободить из плена полковника Нойбера и вывезти спрятанные им документы в Германию. Диверсантам противостоят сотрудники советской армейской контрразведи «Смерш».





Качество видео: DVDRip [DVD9 R5]
Формат видео: AVI

Видео: 720x400 (16:9), XviD 2000 Кбит/сек 25,000 fps / Бит/(Пиксели*Кадры): 0.278
Аудио: Dolby Digital Audio Russian 192 kbps 2.0 / 48 kHz

Раздача от:
Общее
Полное имя : Smert.shpionam.Lisya.nora.2012.DVDRip_[youtracker]_by_avproh1.avi
Формат : AVI
Формат/Информация : Audio Video Interleave
Размер файла : 733 Мбайт
Продолжительность : 46 м.
Общий поток : 2201 Кбит/сек
Программа кодирования : VirtualDubMod 1.5.10.3 | www.virtualdub-fr.org || (build 2550/release)
Библиотека кодирования : VirtualDubMod build 2550/release

Видео
Идентификатор : 0
Формат : MPEG-4 Visual
Профиль формата : Advanced Simple@L5
Параметр BVOP формата : 1
Параметр QPel формата : Нет
Параметр GMC формата : Без точки перехода
Параметр матрицы формата : Выборочная
Идентификатор кодека : XVID
Идентификатор кодека/Подсказка : XviD
Продолжительность : 46 м.
Битрейт : 2000 Кбит/сек
Ширина : 720 пикселей
Высота : 400 пикселей
Соотношение сторон : 16:9
Частота кадров : 25,000 кадров/сек
Цветовое пространство : YUV
Субдискретизация насыщенности : 4:2:0
Битовая глубина : 8 бит
Тип развёртки : Прогрессивная
Метод сжатия : С потерями
Бит/(Пиксели*Кадры) : 0.278
Размер потока : 666 Мбайт (91%)
Библиотека кодирования : XviD 65

Аудио
Идентификатор : 1
Формат : AC-3
Формат/Информация : Audio Coding 3
Расширение режима : CM (complete main)
Параметр Endianness формата : Big
Идентификатор кодека : 2000
Продолжительность : 46 м.
Вид битрейта : Постоянный
Битрейт : 192 Кбит/сек
Каналы : 2 канала
Расположение каналов : Front: L R
Частота : 48,0 КГц
Битовая глубина : 16 бит
Метод сжатия : С потерями
Размер потока : 64,0 Мбайт (9%)
Выравнивание : Разделение по промежуткам
Продолжительность промежутка : 40 мс. (1,00 видеокадр)
Время предзагрузки промежутка : 500 мс.





   Похожие торренты   Торрент   Размер 
В этой теме нет новых непрочитанных сообщений. Смерть шпионам: Операция «Лисья нора» [01-04 из 04] (2012) DVDRip-AVC от Youtracker | лицензия

41 | 8

2.9 ГБ

В этой теме нет новых непрочитанных сообщений. Смерть шпионам: Операция «Лисья нора» [01-04 из 04] (2012) DVD9 R5 от Youtracker | лицензия

4 | 3

6.24 ГБ

В этой теме нет новых непрочитанных сообщений. Смерть шпионам: Операция «Лисья нора» [01-04 из 04] (2012) DVDRip от Generalfilm | КПК

40 | 6

755.23 МБ

В этой теме нет новых непрочитанных сообщений. Смерть шпионам: Операция «Лисья нора» [01-04 из 04] (2012) HDTV 1080i

33 | 23

11.08 ГБ

В этой теме нет новых непрочитанных сообщений. Смерть шпионам: Операция «Лисья нора» [01-04 из 04] (2012) HDTVRip 720p

100 | 13

7.32 ГБ

В этой теме нет новых непрочитанных сообщений. Смерть шпионам: Операция «Лисья нора» [S05] (2012) WEB-DLRip 720p от MegaPeer

59 | 11

3.7 ГБ

В этой теме нет новых непрочитанных сообщений. Смерть шпионам: Операция «Ударная волна» [01-04 из 04] (2012) DVDRip от Youtracker | лицензия

85 | 27

3.01 ГБ




Вы не можете начинать темы
Вы не можете отвечать на сообщения
Вы не можете редактировать свои сообщения
Вы не можете удалять свои сообщения
Вы не можете добавлять вложения

Перейти:  
Для Мосгорсуда, Роскомнадзора и рекламодателей: mosgorsud-torrent[собачка]yandex.ru
 Вход
ppkBB3cker v.2 © 2008-2014 @ PPK
[ Time : 0.036s | 15 Queries | GZIP : Off ]

Торрент трекер RUTOR.IN, Не можете зайти на rutor.org? Какой новый адрес рутор? Какое зеркало рутор? Не работает rutor.org и зеркала? Тогда наш торрент специально для вас. Rutor.in неофициальное зеркало rutor. В случае если у Вас заблокирован rutor или вдруг Вы не можете на него зайти, то Вы без труда сможете скачать бесплатно и без рекламы последние новинки кино, игр, сериалов и прочего у нас, на Rutor.in. Не нужно использовать прокси, чтобы зайти на рутор, достаточно воспользоваться нашим ресурсом. Все новые фильмы, игры, сериалы, книги и музыка за 2013 и 2014 годы через торрент бесплатно. Скачивайте фильмы в хорошем качестве, игры для пк, xbox, playstation без регистрации. У нас вы найдете новые Зарубежные сериалы и Русские сериалы 2013, 2014, 2015 годов. Оставайтесь с нами, качайте любимые фильмы, игры, сериалы, книги и музыку.
cron