img image001 image001 image001 image001 image001 image001 image001 image001 image001 image001 image001 image001 image001 image001 image001

Planets Sun Sun Sun
Статистика раздачи
Автор: Снежана | Размер: 3.01 ГБ | Добавлен: 25 июл 2013, 12:16
Раздают: 85    Качают: 27
Скачать торрент
Скачать торрент
Описание торрента

СообщениеДобавлено: 25 июл 2013, 12:16 

#77
Год выпуска: 2012
Выпущено: Россия / Star Media

Жанр: военный
Продолжительность: 00:47:18 + 00:48:29 + 00:48:22 + 00:48:55

Перевод: не требуется
Оригинальная аудиодорожка: русский
Субтитры: нет

Режиссер: Александр Даруга

В ролях: Павел Трубинер, Дмитрий Суржиков, Юлия Мельникова, Валерий Афанасьев, Иван Мацкевич, Татьяна Чердынцева, Виктор Бабак, Алексей Сенчило, Валерий Зеленский (II) ...

Описание: Май 1943 года. Начальник УКР СМЕРШ генерал-майор Полуноченко поручает молодому сотруднику — лейтенанту ГБ Николаю Ковальчуку проверить ничем не примечательного школьного сторожа, которым заинтересовалась немецкая разведка. Ковальчук узнает, что Вениамин Шубников на самом деле — бывший сотрудник украинского физико-технического института, физик-ядерщик. В 1939 году Шубников был арестован по делу физиков-вредителей. Однако по дороге в лагерь ему и еще одному фигуранту харьковского дела, арестованному за шпионаж немецкому физику Георгу Хоутермансу, удалось бежать.
В скором времени приходит информация о том, что в связи с угрозой советского наступления немцы планируют демонтировать и вывезти в Германию находящийся в харьковском физико-техническом институте урановый котел. Ковальчук предлагает Полуноченко пойти на рискованный шаг — использовать для проникновения в институт Шубникова. Если помочь немцам переправить физика через линию фронта, то у СМЕРШ появится доступ к реактору. Под видом Шубникова готовиться ехать сотрудник СМЕРШ. Из-за личной антипатии и недоверия к врагу народа подготовка продвигается слишком медленно. В это же самое время для демонтажа уранового котла в Харьков пребывает Георг Хоутерманс, согласившийся на сотрудничество с немцами. Ядерный реактор, в чьих руках бы он не оказался, способен повернуть ход мировой истории, а значит, затягивать с проведением операции нельзя.





Качество видео: DVDRip [DVD9 R5]
Формат видео: AVI

Видео: 720x400 (16:9), XviD 2000 Кбит/сек 25,000 fps / Бит/(Пиксели*Кадры): 0.278
Аудио: Dolby Digital Audio Russian 224 kbps 2.0 / 48 kHz

Раздача от:
Общее
Полное имя : DSmert.shpionam.Udarnaya.volna.2012.DVDRip_[youtracker]_by_avproh1.avi
Формат : AVI
Формат/Информация : Audio Video Interleave
Размер файла : 756 Мбайт
Продолжительность : 47 м.
Общий поток : 2233 Кбит/сек
Программа кодирования : VirtualDubMod 1.5.10.3 | www.virtualdub-fr.org || (build 2550/release)
Библиотека кодирования : VirtualDubMod build 2550/release

Видео
Идентификатор : 0
Формат : MPEG-4 Visual
Профиль формата : Advanced Simple@L5
Параметр BVOP формата : 1
Параметр QPel формата : Нет
Параметр GMC формата : Без точки перехода
Параметр матрицы формата : Выборочная
Идентификатор кодека : XVID
Идентификатор кодека/Подсказка : XviD
Продолжительность : 47 м.
Битрейт : 2000 Кбит/сек
Ширина : 720 пикселей
Высота : 400 пикселей
Соотношение сторон : 16:9
Частота кадров : 25,000 кадров/сек
Цветовое пространство : YUV
Субдискретизация насыщенности : 4:2:0
Битовая глубина : 8 бит
Тип развёртки : Прогрессивная
Метод сжатия : С потерями
Бит/(Пиксели*Кадры) : 0.278
Размер потока : 677 Мбайт (90%)
Библиотека кодирования : XviD 65

Аудио
Идентификатор : 1
Формат : AC-3
Формат/Информация : Audio Coding 3
Расширение режима : CM (complete main)
Параметр Endianness формата : Big
Идентификатор кодека : 2000
Продолжительность : 47 м.
Вид битрейта : Постоянный
Битрейт : 224 Кбит/сек
Каналы : 2 канала
Расположение каналов : Front: L R
Частота : 48,0 КГц
Битовая глубина : 16 бит
Метод сжатия : С потерями
Размер потока : 75,8 Мбайт (10%)
Выравнивание : Разделение по промежуткам
Продолжительность промежутка : 40 мс. (1,00 видеокадр)
Время предзагрузки промежутка : 500 мс.





   Похожие торренты   Торрент   Размер 
В этой теме нет новых непрочитанных сообщений. Смерть шпионам: Операция «Ударная волна» [01-04 из 04] (2012) DVDRip-AVC от Youtracker | лицензия

94 | 19

3.01 ГБ

В этой теме нет новых непрочитанных сообщений. Смерть шпионам: Операция «Ударная волна» [01-04 из 04] (2012) DVD9 R5 от Youtracker | лицензия

1 | 2

7.92 ГБ

В этой теме нет новых непрочитанных сообщений. Смерть шпионам: Операция «Ударная волна» [01-04 из 04] (2012) DVDRip от Generalfilm | КПК

20 | 17

773.25 МБ

В этой теме нет новых непрочитанных сообщений. Смерть шпионам: Операция «Ударная волна» [01-04 из 04] (2012) HDTV 1080i

25 | 13

11.35 ГБ

В этой теме нет новых непрочитанных сообщений. Смерть шпионам: Операция «Ударная волна» [01-04 из 04] (2012) HDTVRip 720p

78 | 21

5.43 ГБ

В этой теме нет новых непрочитанных сообщений. Смерть шпионам: Операция «Лисья нора» [01-04 из 04] (2012) DVDRip от Youtracker | лицензия

288 | 35

2.9 ГБ

В этой теме нет новых непрочитанных сообщений. Смерть шпионам: Операция «Лисья нора» [01-04 из 04] (2012) DVDRip-AVC от Youtracker | лицензия

41 | 8

2.9 ГБ




Вы не можете начинать темы
Вы не можете отвечать на сообщения
Вы не можете редактировать свои сообщения
Вы не можете удалять свои сообщения
Вы не можете добавлять вложения

Перейти:  
Для Мосгорсуда, Роскомнадзора и рекламодателей: mosgorsud-torrent[собачка]yandex.ru
Настройки
ppkBB3cker v.2 © 2008-2014 @ PPK
[ Time : 0.907s | 16 Queries | GZIP : Off ]
CGP [Extreme] output time : 0.00020s | 0 Queries | GZIP : Off

Торрент трекер RUTOR.IN, Не можете зайти на rutor.org? Какой новый адрес рутор? Какое зеркало рутор? Не работает rutor.org и зеркала? Тогда наш торрент специально для вас. Rutor.in неофициальное зеркало rutor. В случае если у Вас заблокирован rutor или вдруг Вы не можете на него зайти, то Вы без труда сможете скачать бесплатно и без рекламы последние новинки кино, игр, сериалов и прочего у нас, на Rutor.in. Не нужно использовать прокси, чтобы зайти на рутор, достаточно воспользоваться нашим ресурсом. Все новые фильмы, игры, сериалы, книги и музыка за 2013 и 2014 годы через торрент бесплатно. Скачивайте фильмы в хорошем качестве, игры для пк, xbox, playstation без регистрации. У нас вы найдете новые Зарубежные сериалы и Русские сериалы 2013, 2014, 2015 годов. Оставайтесь с нами, качайте любимые фильмы, игры, сериалы, книги и музыку.