img image001 image001 image001 image001 image001 image001 image001 image001 image001 image001 image001 image001 image001 image001 image001

Planets Sun Sun Sun
Статистика раздачи
Автор: Снежана | Размер: 3.01 ГБ | Добавлен: 25 июл 2013
Раздают: 94    Качают: 19
Скачать торрент
Скачать торрент
Описание торрента

СообщениеДобавлено: 25 июл 2013 

#77
Год выпуска: 2012
Выпущено: Россия / Star Media

Жанр: военный
Продолжительность: 00:47:18 + 00:48:29 + 00:48:22 + 00:48:55

Перевод: не требуется
Оригинальная аудиодорожка: русский
Субтитры: нет

Режиссер: Александр Даруга

В ролях: Павел Трубинер, Дмитрий Суржиков, Юлия Мельникова, Валерий Афанасьев, Иван Мацкевич, Татьяна Чердынцева, Виктор Бабак, Алексей Сенчило, Валерий Зеленский (II) ...

Описание: Май 1943 года. Начальник УКР СМЕРШ генерал-майор Полуноченко поручает молодому сотруднику — лейтенанту ГБ Николаю Ковальчуку проверить ничем не примечательного школьного сторожа, которым заинтересовалась немецкая разведка. Ковальчук узнает, что Вениамин Шубников на самом деле — бывший сотрудник украинского физико-технического института, физик-ядерщик. В 1939 году Шубников был арестован по делу физиков-вредителей. Однако по дороге в лагерь ему и еще одному фигуранту харьковского дела, арестованному за шпионаж немецкому физику Георгу Хоутермансу, удалось бежать.
В скором времени приходит информация о том, что в связи с угрозой советского наступления немцы планируют демонтировать и вывезти в Германию находящийся в харьковском физико-техническом институте урановый котел. Ковальчук предлагает Полуноченко пойти на рискованный шаг — использовать для проникновения в институт Шубникова. Если помочь немцам переправить физика через линию фронта, то у СМЕРШ появится доступ к реактору. Под видом Шубникова готовиться ехать сотрудник СМЕРШ. Из-за личной антипатии и недоверия к врагу народа подготовка продвигается слишком медленно. В это же самое время для демонтажа уранового котла в Харьков пребывает Георг Хоутерманс, согласившийся на сотрудничество с немцами. Ядерный реактор, в чьих руках бы он не оказался, способен повернуть ход мировой истории, а значит, затягивать с проведением операции нельзя.





Качество видео: DVDRip-AVC [DVD9 R5]
Формат видео: MKV

Видео: 720x576@1024x576 (16:9), H264 2006 Кбит/сек 25,000 fps / Бит/(Пиксели*Кадры): 0.193
Аудио: Dolby Digital Audio Russian 224 kbps 2.0 / 48 kHz

Раздача от:
Общее
Полное имя : Smert.shpionam.Udarnaya.volna.2012.DVDRip-AVC_[youtracker]_by_avproh1.mkv
Формат : Matroska
Версия формата : Version 2
Размер файла : 755 Мбайт
Продолжительность : 47 м.
Общий поток : 2232 Кбит/сек
Дата кодирования : UTC 2013-05-07 07:49:22
Программа кодирования : mkvmerge v5.0.1 ('Es ist Sommer') built on Nov 6 2011 16:23:40
Библиотека кодирования : libebml v1.2.2 + libmatroska v1.3.0

Видео
Идентификатор : 1
Формат : AVC
Формат/Информация : Advanced Video Codec
Профиль формата : High@L4.1
Параметр CABAC формата : Да
Параметр ReFrames формата : 11 кадров
Идентификатор кодека : V_MPEG4/ISO/AVC
Продолжительность : 47 м.
Битрейт : 2006 Кбит/сек
Ширина : 720 пикселей
Высота : 576 пикселей
Соотношение сторон : 16:9
Режим частоты кадров : Постоянный
Частота кадров : 25,000 кадров/сек
Стандарт вещания : PAL
Цветовое пространство : YUV
Субдискретизация насыщенности : 4:2:0
Битовая глубина : 8 бит
Тип развёртки : Прогрессивная
Бит/(Пиксели*Кадры) : 0.193
Размер потока : 664 Мбайт (88%)
Библиотека кодирования : x264 core 119 r2106 07efeb4
Настройки программы : cabac=1 / ref=11 / deblock=1:-2:-1 / analyse=0x3:0x113 / me=umh / subme=9 / psy=1 / psy_rd=1.00:0.20 / mixed_ref=1 / me_range=32 / chroma_me=1 / trellis=1 / 8x8dct=1 / cqm=0 / deadzone=21,11 / fast_pskip=0 / chroma_qp_offset=-3 / threads=6 / sliced_threads=0 / nr=0 / decimate=0 / interlaced=0 / bluray_compat=0 / constrained_intra=0 / bframes=8 / b_pyramid=2 / b_adapt=2 / b_bias=0 / direct=3 / weightb=1 / open_gop=0 / weightp=2 / keyint=250 / keyint_min=25 / scenecut=40 / intra_refresh=0 / rc_lookahead=60 / rc=2pass / mbtree=1 / bitrate=2006 / ratetol=1.0 / qcomp=0.60 / qpmin=0 / qpmax=69 / qpstep=4 / cplxblur=20.0 / qblur=0.5 / ip_ratio=1.40 / aq=1:1.00
Default : Да
Forced : Нет

Аудио
Идентификатор : 2
Формат : AC-3
Формат/Информация : Audio Coding 3
Расширение режима : CM (complete main)
Параметр Endianness формата : Big
Идентификатор кодека : A_AC3
Продолжительность : 47 м.
Вид битрейта : Постоянный
Битрейт : 224 Кбит/сек
Каналы : 2 канала
Расположение каналов : Front: L R
Частота : 48,0 КГц
Битовая глубина : 16 бит
Метод сжатия : С потерями
Размер потока : 75,8 Мбайт (10%)
Default : Да
Forced : Нет





   Похожие торренты   Торрент   Размер 
В этой теме нет новых непрочитанных сообщений. Смерть шпионам: Операция «Ударная волна» [01-04 из 04] (2012) DVDRip от Youtracker | лицензия

85 | 27

3.01 ГБ

В этой теме нет новых непрочитанных сообщений. Смерть шпионам: Операция «Ударная волна» [01-04 из 04] (2012) DVD9 R5 от Youtracker | лицензия

1 | 2

7.92 ГБ

В этой теме нет новых непрочитанных сообщений. Смерть шпионам: Операция «Ударная волна» [01-04 из 04] (2012) DVDRip от Generalfilm | КПК

20 | 17

773.25 МБ

В этой теме нет новых непрочитанных сообщений. Смерть шпионам: Операция «Ударная волна» [01-04 из 04] (2012) HDTV 1080i

25 | 13

11.35 ГБ

В этой теме нет новых непрочитанных сообщений. Смерть шпионам: Операция «Ударная волна» [01-04 из 04] (2012) HDTVRip 720p

78 | 21

5.43 ГБ

В этой теме нет новых непрочитанных сообщений. Смерть шпионам: Операция «Лисья нора» [01-04 из 04] (2012) DVDRip от Youtracker | лицензия

288 | 35

2.9 ГБ

В этой теме нет новых непрочитанных сообщений. Смерть шпионам: Операция «Лисья нора» [01-04 из 04] (2012) DVDRip-AVC от Youtracker | лицензия

41 | 8

2.9 ГБ




Вы не можете начинать темы
Вы не можете отвечать на сообщения
Вы не можете редактировать свои сообщения
Вы не можете удалять свои сообщения
Вы не можете добавлять вложения

Перейти:  
Для Мосгорсуда, Роскомнадзора и рекламодателей: mosgorsud-torrent[собачка]yandex.ru
 Вход
ppkBB3cker v.2 © 2008-2014 @ PPK
[ Time : 0.275s | 16 Queries | GZIP : On ]
CGP output time : 0.021s | 5 Queries | GZIP : On

Торрент трекер RUTOR.IN, Не можете зайти на rutor.org? Какой новый адрес рутор? Какое зеркало рутор? Не работает rutor.org и зеркала? Тогда наш торрент специально для вас. Rutor.in неофициальное зеркало rutor. В случае если у Вас заблокирован rutor или вдруг Вы не можете на него зайти, то Вы без труда сможете скачать бесплатно и без рекламы последние новинки кино, игр, сериалов и прочего у нас, на Rutor.in. Не нужно использовать прокси, чтобы зайти на рутор, достаточно воспользоваться нашим ресурсом. Все новые фильмы, игры, сериалы, книги и музыка за 2013 и 2014 годы через торрент бесплатно. Скачивайте фильмы в хорошем качестве, игры для пк, xbox, playstation без регистрации. У нас вы найдете новые Зарубежные сериалы и Русские сериалы 2013, 2014, 2015 годов. Оставайтесь с нами, качайте любимые фильмы, игры, сериалы, книги и музыку.