img image001 image001 image001 image001 image001 image001 image001 image001 image001 image001 image001 image001 image001 image001 image001

Planets Sun Sun Sun
Статистика раздачи
Автор: Снежана | Размер: 26.3 ГБ | Добавлен: 25 июл 2013, 12:17
Раздают: 312    Качают: 23
Скачать торрент
Скачать торрент
Описание торрента

СообщениеДобавлено: 25 июл 2013, 12:17 

[imgright]http://5.firepic.org/5/images/2013-05/07/b2puby6b379a.png[/imgright]
[u]Информация о фильме[/u]
[b]Название: [/b] Братья по оружию
[b]Оригинальное название: [/b] Band of Brothers
[b]Год выхода: [/b] 2001
[b]Жанр: [/b] Боевик, драма, приключения, военный, история
[b]Режиссер: [/b] Дэвид Франкель, Том Хэнкс, Дэвид Лелэнд
[b]В ролях: [/b] Дамиан Льюис, Донни Уолберг, Рон Ливингстон, Скотт Граймз, Рик Гомез, Майкл Кадлитц, Робин Лэйн, Николас Аарон, Джеймс Мадио, Шэйн Тейлор, Декстер Флетчер, Росс МакКолл, Фил Барантини, Нил МакДонаф, Фрэнк Джон Хьюз, Дейл Дай, Джордж Калил, Майкл Фассбендер, Нолан Хеммингс, Рене Л. Морено, Дуглас Спэйн, Ричард Спейт мл., Рик Уорден, Кирк Асеведо, Эйон Бэйли, Мэттью Лейтч, Тим Мэтьюз, Мэттью Сеттл, Джейми Бамбер, Дэвид Швиммер, Марк Уоррен, Стивен Грэм, Эндрю Ховард, Том Харди, Кори Джонсон, Саймон Пегг, Джеймс МакЭвой, Уильям Армстронг, Люси Джинн, Колин Хэнкс, Эндрю Скотт

[b]Сюжет фильма: [/b]

[center][color=blue]«Простые люди. Непростое время.»[/color]
[color=teal]В сериале рассказывается о боевом пути роты E («Easy») 2-го батальона 506-го парашютно-десантного полка 101-й воздушно-десантной дивизии США от тренировочного лагеря в Таккоа, штат Джорджия, через высадку в Нормандии, операцию «Маркет Гарден» и Бастонское сражение, до конца Второй мировой войны...[/color][/center]

[url=http://www.kinopoisk.ru/film/94249/][img]http://www.kinopoisk.ru/rating/94249.gif[/img][/url]

[b]Выпущено: [/b] HBO, США, Великобритания
[b]Продолжительность: [/b] 10 х ~ 01:00:00
[b]Перевод: [/b]Профессиональный двухголосый закадровый (П.Гланц и И.Королева), Профессиональный многоголосый закадровый (Премьер), Профессиональный многоголосый закадровый (ТК Звезда 5 канал), Профессиональный (двухголосый, Кубик в Кубе)
[b]Субтитры: [/b] Русские
[b]Чаптеры: [/b] есть

[spoiler="1-я серия «Куррахе» («Currahee»)"]
[b]Описание:[/b] В 1942 году в Таккоа отборная группа молодых добровольцев начинает военную подготовку. Ребята станут солдатами новейших на тот момент парашютно-десантных подразделений американской армии. Под суровым командованием лейтенанта Собела члены новоиспечённой роты «Изи» проходят путь от «зелёных салаг» до представителей военной элиты. В процессе обучения между Собелем, которого солдаты сразу невзлюбили, и лейтенантом Уинтерсом, уважаемым бойцами, разгорается взаимное соперничество…

[u]Файл[/u]
[b]Качество: [/b]BDRip 720p (исходник Blu-ray Disc)
[b]Видео: [/b]1280x720, 3 819 Kbps Кбит/сек, 23.976 кадр/сек, AVC, x264, 0.173 Бит/(Пиксели*Кадры), 2-pass
[b]Аудио1: [/b]AC-3, 448 Кбит/сек, 6 канала(ов), 48,0 КГц - [color=green]П. Гланц и И. Королёва[/color]
[b]Аудио2: [/b]AC-3, 384 Кбит/сек, 2 канала(ов), 48,0 КГц - [color=blue]Премьер[/color] - [b]/отдельно/[/b]
[b]Аудио3: [/b]AC-3, 192 Кбит/сек, 2 канала(ов), 48,0 КГц - [color=red]ТК Звезда (5 канал)[/color] - [b]/отдельно/[/b]
[b]Аудио4: [/b]AC-3, 448 Кбит/сек, 6 канала(ов), 48,0 КГц - [color=navy]Кубик в Кубе[/color] - [b]/отдельно/[/b]

[spoiler="Скриншоты & MediaInfo"]
[center][url=http://firepic.org/?v=5.2013-05-07_0wmcez51ek7u.png][img]http://5.firepic.org/5/thumbs/2013-05/07/0wmcez51ek7u.png[/img][/url] [url=http://firepic.org/?v=5.2013-05-07_oks86svy31h0.png][img]http://5.firepic.org/5/thumbs/2013-05/07/oks86svy31h0.png[/img][/url] [url=http://firepic.org/?v=5.2013-05-07_qfmw4vdo4ufr.png][img]http://5.firepic.org/5/thumbs/2013-05/07/qfmw4vdo4ufr.png[/img][/url][/center]
[spoiler="MediaInfo"]
Format : Matroska
Format version : Version 4 / Version 2
File size : 2.18 GiB
Duration : 1h 13mn
Overall bit rate : 4 267 Kbps
Movie name : Братья по оружию.1серия. Куррахе.(2001).BDRip.720p от Nolimits-Team
Encoded date : UTC 2013-05-07 07:25:33
Writing application : mkvmerge v6.2.0 ('Promised Land') built on Apr 28 2013 12:22:01
Writing library : libebml v1.3.0 + libmatroska v1.4.0

Video
ID : 1
Format : AVC
Format/Info : Advanced Video Codec
Format profile : High@L4.1
Format settings, CABAC : Yes
Format settings, ReFrames : 9 frames
Codec ID : V_MPEG4/ISO/AVC
Duration : 1h 13mn
Bit rate : 3 819 Kbps
Width : 1 280 pixels
Height : 720 pixels
Display aspect ratio : 16:9
Frame rate mode : Constant
Frame rate : 23.976 fps
Color space : YUV
Chroma subsampling : 4:2:0
Bit depth : 8 bits
Scan type : Progressive
Bits/(Pixel*Frame) : 0.173
Stream size : 1.91 GiB (88%)
Title : Братья по оружию.1серия. Куррахе.(2001).BDRip.720p от Nolimits-Team
Writing library : x264 core 130 r2273 b3065e6
Encoding settings : cabac=1 / ref=9 / deblock=1:-3:-3 / analyse=0x3:0x113 / me=umh / subme=11 / psy=1 / psy_rd=1.00:0.10 / mixed_ref=1 / me_range=32 / chroma_me=1 / trellis=2 / 8x8dct=1 / cqm=0 / deadzone=21,11 / fast_pskip=0 / chroma_qp_offset=-3 / threads=6 / lookahead_threads=1 / sliced_threads=0 / nr=0 / decimate=0 / interlaced=0 / bluray_compat=0 / constrained_intra=0 / bframes=8 / b_pyramid=2 / b_adapt=2 / b_bias=0 / direct=3 / weightb=1 / open_gop=0 / weightp=2 / keyint=240 / keyint_min=23 / scenecut=40 / intra_refresh=0 / rc_lookahead=60 / rc=2pass / mbtree=1 / bitrate=3819 / ratetol=1.0 / qcomp=0.60 / qpmin=0 / qpmax=69 / qpstep=4 / cplxblur=20.0 / qblur=0.5 / ip_ratio=1.40 / aq=1:1.00
Default : Yes
Forced : No

Audio
ID : 2
Format : AC-3
Format/Info : Audio Coding 3
Mode extension : CM (complete main)
Format settings, Endianness : Big
Codec ID : A_AC3
Duration : 1h 13mn
Bit rate mode : Constant
Bit rate : 448 Kbps
Channel(s) : 6 channels
Channel positions : Front: L C R, Side: L R, LFE
Sampling rate : 48.0 KHz
Bit depth : 16 bits
Compression mode : Lossy
Stream size : 235 MiB (10%)
Title : (П. Гланц и И. Королёва)
Language : Russian
Default : Yes
Forced : No

Text
ID : 3
Format : UTF-8
Codec ID : S_TEXT/UTF8
Codec ID/Info : UTF-8 Plain Text
Title : Русские
Language : Russian
Default : No
Forced : No

Menu
00:00:00.000 : en:Chapter 01
00:01:40.097 : en:Chapter 02
00:04:03.741 : en:Chapter 03
00:08:25.503 : en:Chapter 04
00:23:43.630 : en:Chapter 05
00:28:11.105 : en:Chapter 06
00:33:34.846 : en:Chapter 07
00:36:21.804 : en:Chapter 08
00:52:15.132 : en:Chapter 09
01:01:58.213 : en:Chapter 10
01:10:06.202 : en:Chapter 11
01:13:12.386 : en:Chapter 12
[/spoiler][/spoiler][/spoiler]
[spoiler="2-я серия «Самый главный день» («Day of Days»)"]
[b]Описание:[/b] 6 июня 1944 года наступает великий день «Д»: союзные войска высаживаются в Нормандии. Накануне вторжения, с самолётов в тыл противника сбрасывают десантников, которые под покровом ночи должны были начать боевые действия и помочь высадке с моря. Парашютисты попадают под ужасный обстрел, из-за которого никто не приземлился в точке сбора, а многие остались без оружия и боеприпасов. Уинтерс объединяет потерявшихся солдат в сводный отряд, пытаясь помочь бойцам найти свои подразделения. Позднее лейтенант командует атакой на укреплённые позиции немецкой артиллерии, и успешно справляется с задачей, но его отряд несёт первые потери…

[u]Файл[/u]
[b]Качество: [/b]BDRip 720p (исходник Blu-ray Disc)
[b]Видео: [/b]1280x720, 5 560 Kbps Кбит/сек, 23.976 кадр/сек, AVC, x264, 0.252 Бит/(Пиксели*Кадры), 2-pass
[b]Аудио1: [/b]AC-3, 448 Кбит/сек, 6 канала(ов), 48,0 КГц - [color=green]П. Гланц и И. Королёва[/color]
[b]Аудио2: [/b]AC-3, 384 Кбит/сек, 2 канала(ов), 48,0 КГц - [color=blue]Премьер[/color] - [b]/отдельно/[/b]
[b]Аудио3: [/b]AC-3, 192 Кбит/сек, 2 канала(ов), 48,0 КГц - [color=red]ТК Звезда (5 канал)[/color] - [b]/отдельно/[/b]
[b]Аудио4: [/b]AC-3, 448 Кбит/сек, 6 канала(ов), 48,0 КГц - [color=navy]Кубик в Кубе[/color] - [b]/отдельно/[/b]

[spoiler="Скриншоты & MediaInfo"]
[center][url=http://firepic.org/?v=5.2013-05-07_d1j6br15454h.png][img]http://5.firepic.org/5/thumbs/2013-05/07/d1j6br15454h.png[/img][/url] [url=http://firepic.org/?v=5.2013-05-07_k01ybgviugu8.png][img]http://5.firepic.org/5/thumbs/2013-05/07/k01ybgviugu8.png[/img][/url] [url=http://firepic.org/?v=5.2013-05-07_ryrbz2197zy3.png][img]http://5.firepic.org/5/thumbs/2013-05/07/ryrbz2197zy3.png[/img][/url][/center]

[spoiler="MediaInfo"]
Format : Matroska
Format version : Version 4 / Version 2
File size : 2.18 GiB
Duration : 52mn 1s
Overall bit rate : 6 003 Kbps
Movie name : Братья по оружию.2серия.Самый главный день.(2001).BDRip.720p.NoLimits-Team
Encoded date : UTC 2013-04-14 06:55:16
Writing application : mkvmerge v6.1.0 ('Old Devil') built on Mar 2 2013 14:32:37
Writing library : libebml v1.3.0 + libmatroska v1.4.0

Video
ID : 1
Format : AVC
Format/Info : Advanced Video Codec
Format profile : High@L4.1
Format settings, CABAC : Yes
Format settings, ReFrames : 9 frames
Codec ID : V_MPEG4/ISO/AVC
Duration : 52mn 1s
Bit rate : 5 560 Kbps
Width : 1 280 pixels
Height : 720 pixels
Display aspect ratio : 16:9
Frame rate mode : Constant
Frame rate : 23.976 fps
Color space : YUV
Chroma subsampling : 4:2:0
Bit depth : 8 bits
Scan type : Progressive
Bits/(Pixel*Frame) : 0.252
Stream size : 1.97 GiB (91%)
Title : Братья по оружию.2серия.Самый главный день.(2001).BDRip.720p от NoLimits-Team
Writing library : x264 core 130 r2273 b3065e6
Encoding settings : cabac=1 / ref=9 / deblock=1:-3:-3 / analyse=0x3:0x113 / me=umh / subme=11 / psy=1 / psy_rd=1.00:0.10 / mixed_ref=1 / me_range=32 / chroma_me=1 / trellis=2 / 8x8dct=1 / cqm=0 / deadzone=21,11 / fast_pskip=0 / chroma_qp_offset=-3 / threads=6 / lookahead_threads=1 / sliced_threads=0 / nr=0 / decimate=0 / interlaced=0 / bluray_compat=0 / constrained_intra=0 / bframes=8 / b_pyramid=2 / b_adapt=2 / b_bias=0 / direct=3 / weightb=1 / open_gop=0 / weightp=2 / keyint=240 / keyint_min=23 / scenecut=40 / intra_refresh=0 / rc_lookahead=60 / rc=2pass / mbtree=1 / bitrate=5560 / ratetol=1.0 / qcomp=0.60 / qpmin=0 / qpmax=69 / qpstep=4 / cplxblur=20.0 / qblur=0.5 / ip_ratio=1.40 / aq=1:1.00
Language : English
Default : Yes
Forced : No

Audio
ID : 2
Format : AC-3
Format/Info : Audio Coding 3
Mode extension : CM (complete main)
Format settings, Endianness : Big
Codec ID : A_AC3
Duration : 52mn 1s
Bit rate mode : Constant
Bit rate : 448 Kbps
Channel(s) : 6 channels
Channel positions : Front: L C R, Side: L R, LFE
Sampling rate : 48.0 KHz
Bit depth : 16 bits
Compression mode : Lossy
Stream size : 167 MiB (7%)
Title : (П. Гланц и И. Королёва)
Language : Russian
Default : Yes
Forced : No

Text
ID : 3
Format : UTF-8
Codec ID : S_TEXT/UTF8
Codec ID/Info : UTF-8 Plain Text
Title : Русские
Language : Russian
Default : No
Forced : No

Menu
00:00:00.000 : en:Chapter 01
00:02:29.149 : en:Chapter 02
00:04:18.256 : en:Chapter 03
00:14:25.446 : en:Chapter 04
00:22:18.670 : en:Chapter 05
00:28:51.229 : en:Chapter 06
00:43:17.010 : en:Chapter 07
00:48:53.931 : en:Chapter 08
00:52:00.117 : en:Chapter 09

[/spoiler][/spoiler][/spoiler]
[spoiler="3-я серия «Карентан» («Carentan»)"]
[b]Описание:[/b] Спустя два дня после высадки союзных войск рота «Изи» участвует в боях за взятие Карантана и несёт потери. Многим солдатам, включая рядового Блайта (Марк Уоррен), на войне приходится очень тяжело… После 36 дней боёв в Нормандии рота возвращается в Англию, но радость бойцов скоротечна, ибо их уже ждёт новое задание…

[u]Файл[/u]
[b]Качество: [/b]BDRip 720p (исходник Blu-ray Disc)
[b]Видео: [/b]1280x720, 4 334 Kbps Кбит/сек, 23.976 кадр/сек, AVC, x264, 0.196 Бит/(Пиксели*Кадры), 2-pass
[b]Аудио1: [/b]AC-3, 448 Кбит/сек, 6 канала(ов), 48,0 КГц - [color=green]П. Гланц и И. Королёва[/color]
[b]Аудио2: [/b]AC-3, 384 Кбит/сек, 2 канала(ов), 48,0 КГц - [color=blue]Премьер[/color] - [b]/отдельно/[/b]
[b]Аудио3: [/b]AC-3, 192 Кбит/сек, 2 канала(ов), 48,0 КГц - [color=red]ТК Звезда (5 канал)[/color] - [b]/отдельно/[/b]
[b]Аудио4: [/b]AC-3, 448 Кбит/сек, 6 канала(ов), 48,0 КГц - [color=navy]Кубик в Кубе[/color] - [b]/отдельно/[/b]

[spoiler="Скриншоты & MediaInfo"]
[center][url=http://firepic.org/?v=5.2013-05-07_c7v3von86f5a.png][img]http://5.firepic.org/5/thumbs/2013-05/07/c7v3von86f5a.png[/img][/url] [url=http://firepic.org/?v=5.2013-05-07_wz03jyblnzv8.png][img]http://5.firepic.org/5/thumbs/2013-05/07/wz03jyblnzv8.png[/img][/url] [url=http://firepic.org/?v=5.2013-05-07_7ua8d2kdnb7r.png][img]http://5.firepic.org/5/thumbs/2013-05/07/7ua8d2kdnb7r.png[/img][/url][/center]

[spoiler="MediaInfo"]
Format : Matroska
Format version : Version 4 / Version 2
File size : 2.18 GiB
Duration : 1h 5mn
Overall bit rate : 4 782 Kbps
Movie name : Братья по оружию.3серия.Карентан.(2001).BDRip.720p.NoLimits-Team
Encoded date : UTC 2013-04-14 06:59:11
Writing application : mkvmerge v6.1.0 ('Old Devil') built on Mar 2 2013 14:32:37
Writing library : libebml v1.3.0 + libmatroska v1.4.0

Video
ID : 1
Format : AVC
Format/Info : Advanced Video Codec
Format profile : High@L4.1
Format settings, CABAC : Yes
Format settings, ReFrames : 9 frames
Codec ID : V_MPEG4/ISO/AVC
Duration : 1h 5mn
Bit rate : 4 334 Kbps
Width : 1 280 pixels
Height : 720 pixels
Display aspect ratio : 16:9
Frame rate mode : Constant
Frame rate : 23.976 fps
Color space : YUV
Chroma subsampling : 4:2:0
Bit depth : 8 bits
Scan type : Progressive
Bits/(Pixel*Frame) : 0.196
Stream size : 1.93 GiB (89%)
Title : Братья по оружию.3серия.Карентан.(2001).BDRip.720p от NoLimits-Team
Writing library : x264 core 130 r2273 b3065e6
Encoding settings : cabac=1 / ref=9 / deblock=1:-3:-3 / analyse=0x3:0x113 / me=umh / subme=11 / psy=1 / psy_rd=1.00:0.10 / mixed_ref=1 / me_range=32 / chroma_me=1 / trellis=2 / 8x8dct=1 / cqm=0 / deadzone=21,11 / fast_pskip=0 / chroma_qp_offset=-3 / threads=6 / lookahead_threads=1 / sliced_threads=0 / nr=0 / decimate=0 / interlaced=0 / bluray_compat=0 / constrained_intra=0 / bframes=8 / b_pyramid=2 / b_adapt=2 / b_bias=0 / direct=3 / weightb=1 / open_gop=0 / weightp=2 / keyint=240 / keyint_min=23 / scenecut=40 / intra_refresh=0 / rc_lookahead=60 / rc=2pass / mbtree=1 / bitrate=4334 / ratetol=1.0 / qcomp=0.60 / qpmin=0 / qpmax=69 / qpstep=4 / cplxblur=20.0 / qblur=0.5 / ip_ratio=1.40 / aq=1:1.00
Language : English
Default : Yes
Forced : No

Audio
ID : 2
Format : AC-3
Format/Info : Audio Coding 3
Mode extension : CM (complete main)
Format settings, Endianness : Big
Codec ID : A_AC3
Duration : 1h 5mn
Bit rate mode : Constant
Bit rate : 448 Kbps
Channel(s) : 6 channels
Channel positions : Front: L C R, Side: L R, LFE
Sampling rate : 48.0 KHz
Bit depth : 16 bits
Compression mode : Lossy
Stream size : 209 MiB (9%)
Title : (П. Гланц и И. Королёва)
Language : Russian
Default : Yes
Forced : No

Text
ID : 3
Format : UTF-8
Codec ID : S_TEXT/UTF8
Codec ID/Info : UTF-8 Plain Text
Title : Русские
Language : Russian
Default : No
Forced : No

Menu
00:00:00.000 : en:Chapter 01
00:02:28.605 : en:Chapter 02
00:03:25.205 : en:Chapter 03
00:11:56.423 : en:Chapter 04
00:22:17.919 : en:Chapter 05
00:25:56.429 : en:Chapter 06
00:29:05.868 : en:Chapter 07
00:38:34.143 : en:Chapter 08
00:50:32.487 : en:Chapter 09
00:56:01.023 : en:Chapter 10
01:02:14.021 : en:Chapter 11
01:05:19.916 : en:Chapter 12

[/spoiler][/spoiler][/spoiler]
[spoiler="4-я серия «Замены» («Replacements»)"]
[b]Описание:[/b] Из-за значительных потерь в отряд переводят группу новичков-парашютистов. Рота «Изи» участвует в операции «Огород» — высадке десанта на территорию оккупированной немцами Голландии. Не встретив сопротивления в Эндховене, рота «Изи» и команда британских танков, столкнулись с упорным немецким сопротивлением в пригороде и вынуждены были отступить, потеряв немало людей. План союзников войти в Германию через Голландию и закончить войну до Рождества — закончился неудачей…

[u]Файл[/u]
[b]Качество: [/b]BDRip 720p (исходник Blu-ray Disc)
[b]Видео: [/b]1280x720, 4 786 Kbps Кбит/сек, 23.976 кадр/сек, AVC, x264, 0.217 Бит/(Пиксели*Кадры), 2-pass
[b]Аудио1: [/b]AC-3, 448 Кбит/сек, 6 канала(ов), 48,0 КГц - [color=green]П. Гланц и И. Королёва[/color]
[b]Аудио2: [/b]AC-3, 384 Кбит/сек, 2 канала(ов), 48,0 КГц - [color=blue]Премьер[/color] - [b]/отдельно/[/b]
[b]Аудио3: [/b]AC-3, 192 Кбит/сек, 2 канала(ов), 48,0 КГц - [color=red]ТК Звезда (5 канал)[/color] - [b]/отдельно/[/b]
[b]Аудио4: [/b]AC-3, 448 Кбит/сек, 6 канала(ов), 48,0 КГц - [color=navy]Кубик в Кубе[/color] - [b]/отдельно/[/b]

[spoiler="Скриншоты & MediaInfo"]
[center][url=http://firepic.org/?v=5.2013-05-07_xqrjxpj5wx29.png][img]http://5.firepic.org/5/thumbs/2013-05/07/xqrjxpj5wx29.png[/img][/url] [url=http://firepic.org/?v=5.2013-05-07_l2xsxzrsc45w.png][img]http://5.firepic.org/5/thumbs/2013-05/07/l2xsxzrsc45w.png[/img][/url] [url=http://firepic.org/?v=5.2013-05-07_djgbroq7bwft.png][img]http://5.firepic.org/5/thumbs/2013-05/07/djgbroq7bwft.png[/img][/url][/center]

[spoiler="MediaInfo"]
Format : Matroska
Format version : Version 4 / Version 2
File size : 2.18 GiB
Duration : 59mn 42s
Overall bit rate : 5 235 Kbps
Movie name : Братья по оружию.4серия.Замены.(2001).BDRip.720p.NoLimits-Team.mkv
Encoded date : UTC 2013-05-04 10:39:24
Writing application : mkvmerge v6.2.0 ('Promised Land') built on Apr 28 2013 12:22:01
Writing library : libebml v1.3.0 + libmatroska v1.4.0

Video
ID : 1
Format : AVC
Format/Info : Advanced Video Codec
Format profile : High@L4.1
Format settings, CABAC : Yes
Format settings, ReFrames : 9 frames
Codec ID : V_MPEG4/ISO/AVC
Duration : 59mn 42s
Bit rate : 4 786 Kbps
Width : 1 280 pixels
Height : 720 pixels
Display aspect ratio : 16:9
Frame rate mode : Constant
Frame rate : 23.976 fps
Color space : YUV
Chroma subsampling : 4:2:0
Bit depth : 8 bits
Scan type : Progressive
Bits/(Pixel*Frame) : 0.217
Stream size : 1.95 GiB (89%)
Title : Братья по оружию.4серия.Замены.(2001).BDRip.720p.NoLimits-Team.mkv
Writing library : x264 core 132 r2309 3b1f1f7
Encoding settings : cabac=1 / ref=9 / deblock=1:-3:-3 / analyse=0x3:0x113 / me=umh / subme=11 / psy=1 / psy_rd=1.00:0.10 / mixed_ref=1 / me_range=32 / chroma_me=1 / trellis=2 / 8x8dct=1 / cqm=0 / deadzone=21,11 / fast_pskip=0 / chroma_qp_offset=-3 / threads=6 / lookahead_threads=1 / sliced_threads=0 / nr=0 / decimate=0 / interlaced=0 / bluray_compat=0 / constrained_intra=0 / bframes=8 / b_pyramid=2 / b_adapt=2 / b_bias=0 / direct=3 / weightb=1 / open_gop=0 / weightp=2 / keyint=240 / keyint_min=23 / scenecut=40 / intra_refresh=0 / rc_lookahead=60 / rc=2pass / mbtree=1 / bitrate=4786 / ratetol=1.0 / qcomp=0.60 / qpmin=0 / qpmax=69 / qpstep=4 / cplxblur=20.0 / qblur=0.5 / ip_ratio=1.40 / aq=1:1.00
Language : English
Default : Yes
Forced : No

Audio
ID : 2
Format : AC-3
Format/Info : Audio Coding 3
Mode extension : CM (complete main)
Format settings, Endianness : Big
Codec ID : A_AC3
Duration : 59mn 42s
Bit rate mode : Constant
Bit rate : 448 Kbps
Channel(s) : 6 channels
Channel positions : Front: L C R, Side: L R, LFE
Sampling rate : 48.0 KHz
Bit depth : 16 bits
Compression mode : Lossy
Stream size : 191 MiB (9%)
Title : П. Гланц и И. Королёва
Language : Russian
Default : Yes
Forced : No

Text
ID : 3
Format : UTF-8
Codec ID : S_TEXT/UTF8
Codec ID/Info : UTF-8 Plain Text
Title : Русские
Language : Russian
Default : No
Forced : No

Menu
00:00:00.000 : en:Chapter 01
00:02:29.149 : en:Chapter 02
00:03:54.234 : en:Chapter 03
00:11:06.874 : en:Chapter 04
00:15:14.455 : en:Chapter 05
00:18:56.093 : en:Chapter 06
00:25:34.449 : en:Chapter 07
00:40:41.646 : en:Chapter 08
00:49:06.693 : en:Chapter 09
00:52:04.829 : en:Chapter 10
00:56:36.393 : en:Chapter 11
00:59:41.577 : en:Chapter 12

[/spoiler][/spoiler][/spoiler]
[spoiler="5-я серия «Перекрёстки» («Crossroads»)"]
[b]Описание:[/b] Уинтерс возглавлял рискованную операцию на голландской плотине, завершившуюся победой. За успешное выполнение боевой задачи его назначают командиром батальона. Однако Уинтерс недоволен своей новой «административной» должностью. В освобождённый Париж приходят новости о мощном натиске вермахта в лесах Арденн, угрожающем прорвать фронт. Неэкипированная соответствующим образом, рота «Изи» в лютый мороз отправляется на передовую...

[u]Файл[/u]
[b]Качество: [/b]BDRip 720p (исходник Blu-ray Disc)
[b]Видео: [/b]1280x720, 5 165 Kbps Кбит/сек, 23.976 кадр/сек, AVC, x264, 0.234 Бит/(Пиксели*Кадры), 2-pass
[b]Аудио1: [/b]AC-3, 448 Кбит/сек, 6 канала(ов), 48,0 КГц - [color=green]П. Гланц и И. Королёва[/color]
[b]Аудио2: [/b]AC-3, 384 Кбит/сек, 2 канала(ов), 48,0 КГц - [color=blue]Премьер[/color] - [b]/отдельно/[/b]
[b]Аудио3: [/b]AC-3, 192 Кбит/сек, 2 канала(ов), 48,0 КГц - [color=red]ТК Звезда (5 канал)[/color] - [b]/отдельно/[/b]
[b]Аудио4: [/b]AC-3, 448 Кбит/сек, 6 канала(ов), 48,0 КГц - [color=navy]Кубик в Кубе[/color] - [b]/отдельно/[/b]

[spoiler="Скриншоты & MediaInfo"]
[center][url=http://firepic.org/?v=5.2013-05-07_a54235iqwgrt.png][img]http://5.firepic.org/5/thumbs/2013-05/07/a54235iqwgrt.png[/img][/url] [url=http://firepic.org/?v=5.2013-05-07_c6knwidrsz1b.png][img]http://5.firepic.org/5/thumbs/2013-05/07/c6knwidrsz1b.png[/img][/url] [url=http://firepic.org/?v=5.2013-05-07_r1h34gdz0s3y.png][img]http://5.firepic.org/5/thumbs/2013-05/07/r1h34gdz0s3y.png[/img][/url][/center]

[spoiler="MediaInfo"]
Format : Matroska
Format version : Version 4 / Version 2
File size : 2.18 GiB
Duration : 55mn 41s
Overall bit rate : 5 611 Kbps
Movie name : Братья по оружию.1серия. Куррахе.(2001).BDRip.720p от Nolimits-Team
Encoded date : UTC 2013-05-07 07:26:23
Writing application : mkvmerge v6.2.0 ('Promised Land') built on Apr 28 2013 12:22:01
Writing library : libebml v1.3.0 + libmatroska v1.4.0

Video
ID : 1
Format : AVC
Format/Info : Advanced Video Codec
Format profile : High@L4.1
Format settings, CABAC : Yes
Format settings, ReFrames : 9 frames
Codec ID : V_MPEG4/ISO/AVC
Duration : 55mn 41s
Bit rate : 5 165 Kbps
Width : 1 280 pixels
Height : 720 pixels
Display aspect ratio : 16:9
Frame rate mode : Constant
Frame rate : 23.976 fps
Color space : YUV
Chroma subsampling : 4:2:0
Bit depth : 8 bits
Scan type : Progressive
Bits/(Pixel*Frame) : 0.234
Stream size : 1.96 GiB (90%)
Title : Братья по оружию.5серия.Перекрёстки.(2001).BDRip.720p.NoLimits-Team
Writing library : x264 core 132 r2309 3b1f1f7
Encoding settings : cabac=1 / ref=9 / deblock=1:-3:-3 / analyse=0x3:0x113 / me=umh / subme=11 / psy=1 / psy_rd=1.00:0.10 / mixed_ref=1 / me_range=32 / chroma_me=1 / trellis=2 / 8x8dct=1 / cqm=0 / deadzone=21,11 / fast_pskip=0 / chroma_qp_offset=-3 / threads=6 / lookahead_threads=1 / sliced_threads=0 / nr=0 / decimate=0 / interlaced=0 / bluray_compat=0 / constrained_intra=0 / bframes=8 / b_pyramid=2 / b_adapt=2 / b_bias=0 / direct=3 / weightb=1 / open_gop=0 / weightp=2 / keyint=240 / keyint_min=23 / scenecut=40 / intra_refresh=0 / rc_lookahead=60 / rc=2pass / mbtree=1 / bitrate=5165 / ratetol=1.0 / qcomp=0.60 / qpmin=0 / qpmax=69 / qpstep=4 / cplxblur=20.0 / qblur=0.5 / ip_ratio=1.40 / aq=1:1.00
Language : English
Default : Yes
Forced : No

Audio
ID : 2
Format : AC-3
Format/Info : Audio Coding 3
Mode extension : CM (complete main)
Format settings, Endianness : Big
Codec ID : A_AC3
Duration : 55mn 41s
Bit rate mode : Constant
Bit rate : 448 Kbps
Channel(s) : 6 channels
Channel positions : Front: L C R, Side: L R, LFE
Sampling rate : 48.0 KHz
Bit depth : 16 bits
Compression mode : Lossy
Stream size : 178 MiB (8%)
Title : П. Гланц и И. Королёва
Language : Russian
Default : Yes
Forced : No

Text
ID : 3
Format : UTF-8
Codec ID : S_TEXT/UTF8
Codec ID/Info : UTF-8 Plain Text
Title : Русские
Language : Russian
Default : No
Forced : No

Menu
00:00:00.000 : en:Chapter 01
00:02:28.981 : en:Chapter 02
00:03:33.712 : en:Chapter 03
00:07:13.391 : en:Chapter 04
00:15:01.817 : en:Chapter 05
00:21:55.396 : en:Chapter 06
00:27:49.958 : en:Chapter 07
00:33:44.730 : en:Chapter 08
00:41:03.335 : en:Chapter 09
00:52:34.150 : en:Chapter 10
00:55:40.335 : en:Chapter 11

[/spoiler][/spoiler][/spoiler]
[spoiler="6-я серия «Бастонь» («Bastogne»)"]
[b]Описание:[/b] Зимой в бельгийских лесах, неподалёку от Бастони, бойцы роты «Изи» сражаются сразу с несколькими противниками: немцами, голодом и жесточайшим морозом. Измученный санитар Юджин Роу (Шэйн Тэйлор) находится на грани срыва, когда вдруг неожиданно находит себе нового друга — бельгийскую медсестру. Рота «Изи» встречает невесёлое рождество в траншеях, где становится известно, что их командующий, генерал МакОлифф, ответил отказом на немецкий ультиматум о капитуляции фразой: «Чёрта с два!».

[u]Файл[/u]
[b]Качество: [/b]BDRip 720p (исходник Blu-ray Disc)
[b]Видео: [/b]1280x720, 4 203 Kbps Кбит/сек, 23.976 кадр/сек, AVC, x264, 0.190 Бит/(Пиксели*Кадры), 2-pass
[b]Аудио1: [/b]AC-3, 448 Кбит/сек, 6 канала(ов), 48,0 КГц - [color=green]П. Гланц и И. Королёва[/color]
[b]Аудио2: [/b]AC-3, 384 Кбит/сек, 2 канала(ов), 48,0 КГц - [color=blue]Премьер[/color] - [b]/отдельно/[/b]
[b]Аудио3: [/b]AC-3, 192 Кбит/сек, 2 канала(ов), 48,0 КГц - [color=red]ТК Звезда (5 канал)[/color] - [b]/отдельно/[/b]
[b]Аудио4: [/b]AC-3, 448 Кбит/сек, 6 канала(ов), 48,0 КГц - [color=navy]Кубик в Кубе[/color] - [b]/отдельно/[/b]

[spoiler="Скриншоты & MediaInfo"]
[center][url=http://firepic.org/?v=5.2013-05-07_knktn4sw0tau.png][img]http://5.firepic.org/5/thumbs/2013-05/07/knktn4sw0tau.png[/img][/url] [url=http://firepic.org/?v=5.2013-05-07_z61aflyrf8zl.png][img]http://5.firepic.org/5/thumbs/2013-05/07/z61aflyrf8zl.png[/img][/url] [url=http://firepic.org/?v=5.2013-05-07_4043zb2uoj1q.png][img]http://5.firepic.org/5/thumbs/2013-05/07/4043zb2uoj1q.png[/img][/url][/center]

[spoiler="MediaInfo"]
Format : Matroska
Format version : Version 4 / Version 2
File size : 2.18 GiB
Duration : 1h 7mn
Overall bit rate : 4 644 Kbps
Movie name : Братья по оружию.6серия.Бастонь.(2001).BDRip.720p.NoLimits-Team
Encoded date : UTC 2013-05-04 11:00:43
Writing application : mkvmerge v6.2.0 ('Promised Land') built on Apr 28 2013 12:22:01
Writing library : libebml v1.3.0 + libmatroska v1.4.0

Video
ID : 1
Format : AVC
Format/Info : Advanced Video Codec
Format profile : High@L4.1
Format settings, CABAC : Yes
Format settings, ReFrames : 9 frames
Codec ID : V_MPEG4/ISO/AVC
Duration : 1h 7mn
Bit rate : 4 203 Kbps
Width : 1 280 pixels
Height : 720 pixels
Display aspect ratio : 16:9
Frame rate mode : Constant
Frame rate : 23.976 fps
Color space : YUV
Chroma subsampling : 4:2:0
Bit depth : 8 bits
Scan type : Progressive
Bits/(Pixel*Frame) : 0.190
Stream size : 1.93 GiB (88%)
Title : Братья по оружию.6серия.Бастонь.(2001).BDRip.720p.NoLimits-Team
Writing library : x264 core 132 r2309 3b1f1f7
Encoding settings : cabac=1 / ref=9 / deblock=1:-3:-3 / analyse=0x3:0x113 / me=umh / subme=11 / psy=1 / psy_rd=1.00:0.10 / mixed_ref=1 / me_range=32 / chroma_me=1 / trellis=2 / 8x8dct=1 / cqm=0 / deadzone=21,11 / fast_pskip=0 / chroma_qp_offset=-3 / threads=6 / lookahead_threads=1 / sliced_threads=0 / nr=0 / decimate=0 / interlaced=0 / bluray_compat=0 / constrained_intra=0 / bframes=8 / b_pyramid=2 / b_adapt=2 / b_bias=0 / direct=3 / weightb=1 / open_gop=0 / weightp=2 / keyint=240 / keyint_min=23 / scenecut=40 / intra_refresh=0 / rc_lookahead=60 / rc=2pass / mbtree=1 / bitrate=4203 / ratetol=1.0 / qcomp=0.60 / qpmin=0 / qpmax=69 / qpstep=4 / cplxblur=20.0 / qblur=0.5 / ip_ratio=1.40 / aq=1:1.00
Language : English
Default : Yes
Forced : No

Audio
ID : 2
Format : AC-3
Format/Info : Audio Coding 3
Mode extension : CM (complete main)
Format settings, Endianness : Big
Codec ID : A_AC3
Duration : 1h 7mn
Bit rate mode : Constant
Bit rate : 448 Kbps
Channel(s) : 6 channels
Channel positions : Front: L C R, Side: L R, LFE
Sampling rate : 48.0 KHz
Bit depth : 16 bits
Compression mode : Lossy
Stream size : 216 MiB (10%)
Title : П. Гланц и И. Королёва
Language : Russian
Default : Yes
Forced : No

Text
ID : 3
Format : UTF-8
Codec ID : S_TEXT/UTF8
Codec ID/Info : UTF-8 Plain Text
Title : Русские
Language : Russian
Default : No
Forced : No

Menu
00:00:00.000 : en:Chapter 01
00:02:29.149 : en:Chapter 02
00:03:44.347 : en:Chapter 03
00:08:33.512 : en:Chapter 04
00:13:56.667 : en:Chapter 05
00:20:38.069 : en:Chapter 06
00:25:48.837 : en:Chapter 07
00:32:03.922 : en:Chapter 08
00:38:38.858 : en:Chapter 09
00:44:03.641 : en:Chapter 10
00:50:31.235 : en:Chapter 11
00:58:14.364 : en:Chapter 12
01:04:05.090 : en:Chapter 13
01:07:11.027 : en:Chapter 14

[/spoiler][/spoiler][/spoiler]
[spoiler="7-я серия «Перелом» («The Breaking Point»)"]
[b]Описание:[/b] Дав отпор немцам в Бастони, измученная рота «Изи» получает приказ отвоевать у врага близлежащий город Фой. Из-за неопытности нового командира, лейтенанта Дайка, потери личного состава в жестоком бою увеличились. Город взят, но слишком высокой ценой…

[u]Файл[/u]
[b]Качество: [/b]BDRip 720p (исходник Blu-ray Disc)
[b]Видео: [/b]1280x720, 3 843 Kbps Кбит/сек, 23.976 кадр/сек, AVC, x264, 0.174 Бит/(Пиксели*Кадры), 2-pass
[b]Аудио1: [/b]AC-3, 448 Кбит/сек, 6 канала(ов), 48,0 КГц - [color=green]П. Гланц и И. Королёва[/color]
[b]Аудио2: [/b]AC-3, 384 Кбит/сек, 2 канала(ов), 48,0 КГц - [color=blue]Премьер[/color] - [b]/отдельно/[/b]
[b]Аудио3: [/b]AC-3, 192 Кбит/сек, 2 канала(ов), 48,0 КГц - [color=red]ТК Звезда (5 канал)[/color] - [b]/отдельно/[/b]
[b]Аудио4: [/b]AC-3, 448 Кбит/сек, 6 канала(ов), 48,0 КГц - [color=navy]Кубик в Кубе[/color] - [b]/отдельно/[/b]

[spoiler="Скриншоты & MediaInfo"]
[center][url=http://firepic.org/?v=5.2013-05-07_eclnl4quhu3n.png][img]http://5.firepic.org/5/thumbs/2013-05/07/eclnl4quhu3n.png[/img][/url] [url=http://firepic.org/?v=5.2013-05-07_8r9z2tg4itws.png][img]http://5.firepic.org/5/thumbs/2013-05/07/8r9z2tg4itws.png[/img][/url][url=http://firepic.org/?v=5.2013-05-07_1ywakxnds43a.png][img]http://5.firepic.org/5/thumbs/2013-05/07/1ywakxnds43a.png[/img][/url] [/center]

[spoiler="MediaInfo"]
Format : Matroska
Format version : Version 4 / Version 2
File size : 2.18 GiB
Duration : 1h 12mn
Overall bit rate : 4 287 Kbps
Movie name : Братья по оружию.7серия.Перелом.(2001).BDRip.720p.NoLimits-Team
Encoded date : UTC 2013-05-07 06:42:15
Writing application : mkvmerge v6.2.0 ('Promised Land') built on Apr 28 2013 12:22:01
Writing library : libebml v1.3.0 + libmatroska v1.4.0

Video
ID : 1
Format : AVC
Format/Info : Advanced Video Codec
Format profile : High@L4.1
Format settings, CABAC : Yes
Format settings, ReFrames : 9 frames
Codec ID : V_MPEG4/ISO/AVC
Duration : 1h 12mn
Bit rate : 3 843 Kbps
Width : 1 280 pixels
Height : 720 pixels
Display aspect ratio : 16:9
Frame rate mode : Constant
Frame rate : 23.976 fps
Color space : YUV
Chroma subsampling : 4:2:0
Bit depth : 8 bits
Scan type : Progressive
Bits/(Pixel*Frame) : 0.174
Stream size : 1.91 GiB (88%)
Title : Братья по оружию.7серия.Перелом.(2001).BDRip.720p.NoLimits-Team
Writing library : x264 core 132 r2310 76a5c3a
Encoding settings : cabac=1 / ref=9 / deblock=1:0:0 / analyse=0x3:0x113 / me=umh / subme=11 / psy=1 / psy_rd=1.00:0.10 / mixed_ref=1 / me_range=32 / chroma_me=1 / trellis=2 / 8x8dct=1 / cqm=0 / deadzone=21,11 / fast_pskip=0 / chroma_qp_offset=-3 / threads=6 / lookahead_threads=1 / sliced_threads=0 / nr=0 / decimate=0 / interlaced=0 / bluray_compat=0 / constrained_intra=0 / bframes=8 / b_pyramid=2 / b_adapt=2 / b_bias=0 / direct=3 / weightb=1 / open_gop=0 / weightp=2 / keyint=240 / keyint_min=23 / scenecut=40 / intra_refresh=0 / rc_lookahead=60 / rc=2pass / mbtree=1 / bitrate=3843 / ratetol=1.0 / qcomp=0.60 / qpmin=0 / qpmax=69 / qpstep=4 / cplxblur=20.0 / qblur=0.5 / ip_ratio=1.40 / aq=1:0.95
Language : English
Default : Yes
Forced : No

Audio
ID : 2
Format : AC-3
Format/Info : Audio Coding 3
Mode extension : CM (complete main)
Format settings, Endianness : Big
Codec ID : A_AC3
Duration : 1h 12mn
Bit rate mode : Constant
Bit rate : 448 Kbps
Channel(s) : 6 channels
Channel positions : Front: L C R, Side: L R, LFE
Sampling rate : 48.0 KHz
Bit depth : 16 bits
Compression mode : Lossy
Stream size : 233 MiB (10%)
Title : П.Гланц и И.Королева
Language : Russian
Default : Yes
Forced : No

Text
ID : 3
Format : UTF-8
Codec ID : S_TEXT/UTF8
Codec ID/Info : UTF-8 Plain Text
Title : Русские
Language : Russian
Default : No
Forced : No

Menu
00:00:00.000 : en:Chapter 01
00:01:30.090 : en:Chapter 02
00:03:52.229 : en:Chapter 03
00:11:15.340 : en:Chapter 04
00:16:38.369 : en:Chapter 05
00:22:00.317 : en:Chapter 06
00:30:41.922 : en:Chapter 07
00:41:17.766 : en:Chapter 08
00:45:25.722 : en:Chapter 09
00:51:50.606 : en:Chapter 10
01:02:56.606 : en:Chapter 11
01:09:43.511 : en:Chapter 12
01:12:49.363 : en:Chapter 13
[/spoiler][/spoiler][/spoiler]
[spoiler="8-я серия «Последний патруль» («The Last Patrol»)"]
[b]Описание:[/b] Рота «Изи» прибывает в эльзасский городок Хагенау, который находится вблизи с германской границей, и получает приказ послать разведчиков, чтобы добыть вражеского «языка». Вновь прибывший выпускник «Вест-Пойнта», лейтенант Джонс, вызывается добровольцем на задание. Несмотря на то, что операция прошла успешно, один из десантников погиб. Это событие вынудило Уинтерса не посылать вторую группу разведчиков следующей ночью…

[u]Файл[/u]
[b]Качество: [/b]BDRip 720p (исходник Blu-ray Disc)
[b]Видео: [/b]1280x720, 4 850 Kbps Кбит/сек, 23.976 кадр/сек, AVC, x264, 0.219 Бит/(Пиксели*Кадры), 2-pass
[b]Аудио1: [/b]AC-3, 448 Кбит/сек, 6 канала(ов), 48,0 КГц - [color=green]П. Гланц и И. Королёва[/color]
[b]Аудио2: [/b]AC-3, 384 Кбит/сек, 2 канала(ов), 48,0 КГц - [color=blue]Премьер[/color] - [b]/отдельно/[/b]
[b]Аудио3: [/b]AC-3, 192 Кбит/сек, 2 канала(ов), 48,0 КГц - [color=red]ТК Звезда (5 канал)[/color] - [b]/отдельно/[/b]
[b]Аудио4: [/b]AC-3, 448 Кбит/сек, 6 канала(ов), 48,0 КГц - [color=navy]Кубик в Кубе[/color] - [b]/отдельно/[/b]

[spoiler="Скриншоты & MediaInfo"]
[center][url=http://firepic.org/?v=5.2013-05-07_jil53qm0v246.png][img]http://5.firepic.org/5/thumbs/2013-05/07/jil53qm0v246.png[/img][/url] [url=http://firepic.org/?v=5.2013-05-07_oalcev35y7xk.png][img]http://5.firepic.org/5/thumbs/2013-05/07/oalcev35y7xk.png[/img][/url] [url=http://firepic.org/?v=5.2013-05-07_bghede6l7cwl.png][img]http://5.firepic.org/5/thumbs/2013-05/07/bghede6l7cwl.png[/img][/url] [/center]

[spoiler="MediaInfo"]
Format : Matroska
Format version : Version 4 / Version 2
File size : 2.18 GiB
Duration : 58mn 59s
Overall bit rate : 5 298 Kbps
Movie name : Братья по оружию.8серия.Последний патруль.(2001).BDRip.720p.NoLimits-Team
Encoded date : UTC 2013-05-07 06:47:25
Writing application : mkvmerge v6.2.0 ('Promised Land') built on Apr 28 2013 12:22:01
Writing library : libebml v1.3.0 + libmatroska v1.4.0

Video
ID : 1
Format : AVC
Format/Info : Advanced Video Codec
Format profile : High@L4.1
Format settings, CABAC : Yes
Format settings, ReFrames : 9 frames
Codec ID : V_MPEG4/ISO/AVC
Duration : 58mn 59s
Bit rate : 4 850 Kbps
Width : 1 280 pixels
Height : 720 pixels
Display aspect ratio : 16:9
Frame rate mode : Constant
Frame rate : 23.976 fps
Color space : YUV
Chroma subsampling : 4:2:0
Bit depth : 8 bits
Scan type : Progressive
Bits/(Pixel*Frame) : 0.219
Stream size : 1.95 GiB (90%)
Title : Братья по оружию.8серия.Последний патруль.(2001).BDRip.720p.NoLimits-Team
Writing library : x264 core 132 r2310 76a5c3a
Encoding settings : cabac=1 / ref=9 / deblock=1:0:0 / analyse=0x3:0x113 / me=umh / subme=11 / psy=1 / psy_rd=1.00:0.10 / mixed_ref=1 / me_range=32 / chroma_me=1 / trellis=2 / 8x8dct=1 / cqm=0 / deadzone=21,11 / fast_pskip=0 / chroma_qp_offset=-3 / threads=6 / lookahead_threads=1 / sliced_threads=0 / nr=0 / decimate=0 / interlaced=0 / bluray_compat=0 / constrained_intra=0 / bframes=8 / b_pyramid=2 / b_adapt=2 / b_bias=0 / direct=3 / weightb=1 / open_gop=0 / weightp=2 / keyint=240 / keyint_min=23 / scenecut=40 / intra_refresh=0 / rc_lookahead=60 / rc=2pass / mbtree=1 / bitrate=4850 / ratetol=1.0 / qcomp=0.60 / qpmin=0 / qpmax=69 / qpstep=4 / cplxblur=20.0 / qblur=0.5 / ip_ratio=1.40 / aq=1:0.95
Language : English
Default : Yes
Forced : No

Audio
ID : 2
Format : AC-3
Format/Info : Audio Coding 3
Mode extension : CM (complete main)
Format settings, Endianness : Big
Codec ID : A_AC3
Duration : 58mn 59s
Bit rate mode : Constant
Bit rate : 448 Kbps
Channel(s) : 6 channels
Channel positions : Front: L C R, Side: L R, LFE
Sampling rate : 48.0 KHz
Bit depth : 16 bits
Compression mode : Lossy
Stream size : 189 MiB (8%)
Title : П.Гланц и И.Королева
Language : Russian
Default : Yes
Forced : No

Text
ID : 3
Format : UTF-8
Codec ID : S_TEXT/UTF8
Codec ID/Info : UTF-8 Plain Text
Title : Русские
Language : Russian
Default : No
Forced : No

Menu
00:00:00.000 : en:Chapter 01
00:02:28.981 : en:Chapter 02
00:03:44.972 : en:Chapter 03
00:11:44.702 : en:Chapter 04
00:19:14.193 : en:Chapter 05
00:24:09.320 : en:Chapter 06
00:32:06.922 : en:Chapter 07
00:39:58.103 : en:Chapter 08
00:44:32.710 : en:Chapter 09
00:55:52.349 : en:Chapter 10
00:58:58.534 : en:Chapter 11
[/spoiler][/spoiler][/spoiler]
[spoiler="9-я серия «Почему мы сражаемся?» («Why We Fight»)"]
[b]Описание:[/b] Рота «Изи» входит на территорию Германии, встречает на удивление слабое сопротивление и получает возможность отдохнуть. Разведка обнаруживает в близлежащем лесу брошенный нацистский концлагерь с военнопленными. Местные жители, однако, отрицают, что им известно о существовании лагеря. Вскоре приходит известие о том, что Гитлер — мёртв…

[u]Файл[/u]
[b]Качество: [/b]BDRip 720p (исходник Blu-ray Disc)
[b]Видео: [/b]1280x720, 4 923 Kbps Кбит/сек, 23.976 кадр/сек, AVC, x264, 0.223 Бит/(Пиксели*Кадры), 2-pass
[b]Аудио1: [/b]AC-3, 448 Кбит/сек, 6 канала(ов), 48,0 КГц - [color=green]П. Гланц и И. Королёва[/color]
[b]Аудио2: [/b]AC-3, 384 Кбит/сек, 2 канала(ов), 48,0 КГц - [color=blue]Премьер[/color] - [b]/отдельно/[/b]
[b]Аудио3: [/b]AC-3, 192 Кбит/сек, 2 канала(ов), 48,0 КГц - [color=red]ТК Звезда (5 канал)[/color] - [b]/отдельно/[/b]
[b]Аудио4: [/b]AC-3, 448 Кбит/сек, 6 канала(ов), 48,0 КГц - [color=navy]Кубик в Кубе[/color] - [b]/отдельно/[/b]

[spoiler="Скриншоты & MediaInfo"]
[center] [url=http://firepic.org/?v=5.2013-05-07_zn7zyxqnjqx7.png][img]http://5.firepic.org/5/thumbs/2013-05/07/zn7zyxqnjqx7.png[/img][/url] [url=http://firepic.org/?v=5.2013-05-07_mxp23vgtspfd.png][img]http://5.firepic.org/5/thumbs/2013-05/07/mxp23vgtspfd.png[/img][/url] [url=http://firepic.org/?v=5.2013-05-07_f5figipl5461.png][img]http://5.firepic.org/5/thumbs/2013-05/07/f5figipl5461.png[/img][/url] [/center]

[spoiler="MediaInfo"]
Format : Matroska
Format version : Version 4 / Version 2
File size : 2.18 GiB
Duration : 58mn 11s
Overall bit rate : 5 371 Kbps
Movie name : Братья по оружию.9серия.Почему мы сражаемся?.(2001).BDRip.720p.NoLimits-Team
Encoded date : UTC 2013-05-07 07:09:20
Writing application : mkvmerge v6.2.0 ('Promised Land') built on Apr 28 2013 12:22:01
Writing library : libebml v1.3.0 + libmatroska v1.4.0

Video
ID : 1
Format : AVC
Format/Info : Advanced Video Codec
Format profile : High@L4.1
Format settings, CABAC : Yes
Format settings, ReFrames : 9 frames
Codec ID : V_MPEG4/ISO/AVC
Duration : 58mn 11s
Bit rate : 4 923 Kbps
Width : 1 280 pixels
Height : 720 pixels
Display aspect ratio : 16:9
Frame rate mode : Constant
Frame rate : 23.976 fps
Color space : YUV
Chroma subsampling : 4:2:0
Bit depth : 8 bits
Scan type : Progressive
Bits/(Pixel*Frame) : 0.223
Stream size : 1.96 GiB (90%)
Title : Братья по оружию.9серия.Почему мы сражаемся?.(2001).BDRip.720p.NoLimits-Team
Writing library : x264 core 132 r2310 76a5c3a
Encoding settings : cabac=1 / ref=9 / deblock=1:0:0 / analyse=0x3:0x113 / me=umh / subme=11 / psy=1 / psy_rd=1.00:0.10 / mixed_ref=1 / me_range=32 / chroma_me=1 / trellis=2 / 8x8dct=1 / cqm=0 / deadzone=21,11 / fast_pskip=0 / chroma_qp_offset=-3 / threads=6 / lookahead_threads=1 / sliced_threads=0 / nr=0 / decimate=0 / interlaced=0 / bluray_compat=0 / constrained_intra=0 / bframes=8 / b_pyramid=2 / b_adapt=2 / b_bias=0 / direct=3 / weightb=1 / open_gop=0 / weightp=2 / keyint=240 / keyint_min=23 / scenecut=40 / intra_refresh=0 / rc_lookahead=60 / rc=2pass / mbtree=1 / bitrate=4923 / ratetol=1.0 / qcomp=0.60 / qpmin=0 / qpmax=69 / qpstep=4 / cplxblur=20.0 / qblur=0.5 / ip_ratio=1.40 / aq=1:0.95
Language : English
Default : Yes
Forced : No

Audio
ID : 2
Format : AC-3
Format/Info : Audio Coding 3
Mode extension : CM (complete main)
Format settings, Endianness : Big
Codec ID : A_AC3
Duration : 58mn 11s
Bit rate mode : Constant
Bit rate : 448 Kbps
Channel(s) : 6 channels
Channel positions : Front: L C R, Side: L R, LFE
Sampling rate : 48.0 KHz
Bit depth : 16 bits
Compression mode : Lossy
Stream size : 186 MiB (8%)
Title : П.Гланц и И.Королева
Language : Russian
Default : Yes
Forced : No

Text
ID : 3
Format : UTF-8
Codec ID : S_TEXT/UTF8
Codec ID/Info : UTF-8 Plain Text
Title : Русские
Language : Russian
Default : Yes
Forced : No

Menu
00:00:00.000 : en:Chapter 01
00:01:09.652 : en:Chapter 02
00:03:32.336 : en:Chapter 03
00:05:59.357 : en:Chapter 04
00:13:25.721 : en:Chapter 05
00:20:10.334 : en:Chapter 06
00:30:54.227 : en:Chapter 07
00:35:50.106 : en:Chapter 08
00:45:31.436 : en:Chapter 09
00:49:22.583 : en:Chapter 10
00:55:00.630 : en:Chapter 11
00:58:10.487 : en:Chapter 12
[/spoiler][/spoiler][/spoiler]
[spoiler="10-я серия «Баллы» («Points»)"]
[b]Описание:[/b] Рота «Изи» входит в Баварский городок Берхтесгаден, где некогда отдыхала офицерская элита вермахта, и захватывает неприступную горную крепость Гитлера «Орлиное гнездо». Капитуляция Японии ознаменовывает окончание войны. Теперь предстоит узнать, что стало с нашими героями после возвращения домой…

[u]Файл[/u]
[b]Качество: [/b]BDRip 720p (исходник Blu-ray Disc)
[b]Видео: [/b]1280x720, 4 573 Kbps Кбит/сек, 23.976 кадр/сек, AVC, x264, 0.207 Бит/(Пиксели*Кадры), 2-pass
[b]Аудио1: [/b]AC-3, 448 Кбит/сек, 6 канала(ов), 48,0 КГц - [color=green]П. Гланц и И. Королёва[/color]
[b]Аудио2: [/b]AC-3, 384 Кбит/сек, 2 канала(ов), 48,0 КГц - [color=blue]Премьер[/color] - [b]/отдельно/[/b]
[b]Аудио3: [/b]AC-3, 192 Кбит/сек, 2 канала(ов), 48,0 КГц - [color=red]ТК Звезда (5 канал)[/color] - [b]/отдельно/[/b]
[b]Аудио4: [/b]AC-3, 448 Кбит/сек, 6 канала(ов), 48,0 КГц - [color=navy]Кубик в Кубе[/color] - [b]/отдельно/[/b]

[spoiler="Скриншоты & MediaInfo"]
[center] [url=http://firepic.org/?v=5.2013-05-07_dbaw53w4i8ib.png][img]http://5.firepic.org/5/thumbs/2013-05/07/dbaw53w4i8ib.png[/img][/url] [url=http://firepic.org/?v=5.2013-05-07_xr9z2jih6m9r.png][img]http://5.firepic.org/5/thumbs/2013-05/07/xr9z2jih6m9r.png[/img][/url] [url=http://firepic.org/?v=5.2013-05-07_5z0kid4v84sa.png][img]http://5.firepic.org/5/thumbs/2013-05/07/5z0kid4v84sa.png[/img][/url][/center]

[spoiler="MediaInfo"]
Format : Matroska
Format version : Version 4 / Version 2
File size : 2.18 GiB
Duration : 1h 2mn
Overall bit rate : 5 020 Kbps
Movie name : Братья по оружию.10серия.Баллы.(2001).BDRip.720p.NoLimits-Team
Encoded date : UTC 2013-05-07 07:16:23
Writing application : mkvmerge v6.2.0 ('Promised Land') built on Apr 28 2013 12:22:01
Writing library : libebml v1.3.0 + libmatroska v1.4.0

Video
ID : 1
Format : AVC
Format/Info : Advanced Video Codec
Format profile : High@L4.1
Format settings, CABAC : Yes
Format settings, ReFrames : 9 frames
Codec ID : V_MPEG4/ISO/AVC
Duration : 1h 2mn
Bit rate : 4 573 Kbps
Width : 1 280 pixels
Height : 720 pixels
Display aspect ratio : 16:9
Frame rate mode : Constant
Frame rate : 23.976 fps
Color space : YUV
Chroma subsampling : 4:2:0
Bit depth : 8 bits
Scan type : Progressive
Bits/(Pixel*Frame) : 0.207
Stream size : 1.94 GiB (89%)
Title : Братья по оружию.10серия.Баллы.(2001).BDRip.720p.NoLimits-Team
Writing library : x264 core 132 r2310 76a5c3a
Encoding settings : cabac=1 / ref=9 / deblock=1:0:0 / analyse=0x3:0x113 / me=umh / subme=11 / psy=1 / psy_rd=1.00:0.10 / mixed_ref=1 / me_range=32 / chroma_me=1 / trellis=2 / 8x8dct=1 / cqm=0 / deadzone=21,11 / fast_pskip=0 / chroma_qp_offset=-3 / threads=6 / lookahead_threads=1 / sliced_threads=0 / nr=0 / decimate=0 / interlaced=0 / bluray_compat=0 / constrained_intra=0 / bframes=8 / b_pyramid=2 / b_adapt=2 / b_bias=0 / direct=3 / weightb=1 / open_gop=0 / weightp=2 / keyint=240 / keyint_min=23 / scenecut=40 / intra_refresh=0 / rc_lookahead=60 / rc=2pass / mbtree=1 / bitrate=4573 / ratetol=1.0 / qcomp=0.60 / qpmin=0 / qpmax=69 / qpstep=4 / cplxblur=20.0 / qblur=0.5 / ip_ratio=1.40 / aq=1:0.95
Language : English
Default : Yes
Forced : No

Audio
ID : 2
Format : AC-3
Format/Info : Audio Coding 3
Mode extension : CM (complete main)
Format settings, Endianness : Big
Codec ID : A_AC3
Duration : 1h 2mn
Bit rate mode : Constant
Bit rate : 448 Kbps
Channel(s) : 6 channels
Channel positions : Front: L C R, Side: L R, LFE
Sampling rate : 48.0 KHz
Bit depth : 16 bits
Compression mode : Lossy
Stream size : 199 MiB (9%)
Title : П.Гланц и И.Королева
Language : Russian
Default : Yes
Forced : No

Text
ID : 3
Format : UTF-8
Codec ID : S_TEXT/UTF8
Codec ID/Info : UTF-8 Plain Text
Title : Русские
Language : Russian
Default : No
Forced : No

Menu
00:00:00.000 : en:Chapter 01
00:02:31.150 : en:Chapter 02
00:09:02.582 : en:Chapter 03
00:16:50.215 : en:Chapter 04
00:24:13.409 : en:Chapter 05
00:31:22.255 : en:Chapter 06
00:34:42.121 : en:Chapter 07
00:43:54.130 : en:Chapter 08
00:51:39.346 : en:Chapter 09
00:56:41.898 : en:Chapter 10
00:59:07.793 : en:Chapter 11
01:02:13.729 : en:Chapter 12

[/spoiler][/spoiler][/spoiler]
[hr][/hr]
[spoiler="Знаете ли вы, что..."]
Практически все главные актеры были взяты на роли из-за внешнего сходства с настоящими солдатами, которых они играли.
Массовка насчитывала около 2,000 человек.
Во время съёмок было использовано около 700 штук огнестрельного оружия и почти 400 штук резиновых копий огнестрельного оружия.
При съёмках наиболее ожесточенных боев требовалось около 14,000 патронов.
Тони Блэр лично встретился со Стивеном Спилбергом, попросив, чтобы съёмки сериала проходили в Великобритании.
Хэтфилдский аэродром в Хартфордшире, где также проходили съёмки «Спасти рядового Райана» (1998), стал основным местом съёмок сериала. Также съёмки велись в различных уголках Англии, Нидерландов и Франции. Хэтфилдский аэродром мог предложить создателям 405 гектаров открытого пространства, а также множество пустых ангаров, что делало его идеальным местом для строительства декораций.
Перед началом съёмок актеры прошли десятидневный курс боевой подготовки. Причем актерам необходимо было постоянно оставаться в образе.
Площадь деревни (Карентан), использовавшейся для съёмок 11 различных европейских городов и деревень, составляла 4,86 гектаров.
Уже к третьей серии было использовано больше пиротехники и патронов, чем за всё время съёмок «Спасти рядового Райана» (1998).
Создатели заключили контракт с компанией «Corcoran Boot Co» на производство 500 пар ботинок парашютистов согласно оригинальным армейским спецификациям.
Для съёмок было закуплено или произведено около 2,000 штук немецкой и американской военной формы.
Все из 1,200 гражданских костюмов были сделаны из тканей, что использовались для пошива одежды в середине двадцатого века.
Все знаки отличия, что можно заметить в фильме, либо подлинные, либо являются точной копией.
Во всем сериале насчитывается около 500 ролей, у которых есть хотя бы несколько реплик.
Декорация леса была построена в одном из ангаров аэродрома. Декорация объединяла в себе как живые деревья, так и искусственные, созданные командой по спецэффектам.
В качестве снега в декорации леса было использовано около 150,000 килограммов переработанной бумаги, что на момент съёмок сериала являлось абсолютным рекордом. У создателей ушло четыре недели, чтобы полностью «покрыть снегом» съёмочную площадку.
Строительство декораций обошлось создателям в $17 миллионов.
При съёмках использовались специальные куклы в человеческий рост, которые могли принимать любую позицию, удерживая оружие и амуницию.
Во время съёмок одновременно работали пять кухонь, чтобы накормить всю съёмочную группу.
Площадь каждой из двух наиболее крупных декораций составляла около 4,500 квадратных метров.
Площадь натурной съёмочной площадки составляла 445 гектаров.
Название сериала взято из «Генри V» Уильяма Шекспира.
Команда по спецэффектам придумала новый способ применения «петард», небольшого заряда взрывчатого вещества, который имитирует пулевые ранения и отверстия. Команда по спецэффектам разработала специальные «петарды», которые использовали сжатый воздух, а не стандартную пиротехнику. Данное изобретение позволило актерам находиться ближе друг другу, когда происходит взрыв «петарды», не рискуя при этом поранить партнера по съёмкам.
На съёмках постоянно присутствовали пятьдесят специально обученных членов массовки. Эти люди прошли курс подготовки по обращению с оружием и в различных сценах играли либо британских, либо немецких солдат.
В концовке третьей серии говорится, что рядовой Альберт Блит умер в 1948 году. На самом деле, он успешно прошел курс лечения от ранения в шею и ушел из жизни в 1967 году из-за почечной недостаточности.
Капитан Дейл Дай, военный консультант на съёмках, также сыграл полковника Роберта Синка.
По версии Empire сериал занял 41 место в списке «50 величайших сериалов».
[/spoiler]
[spoiler="Награды и номинации:"]
[color=blue]Золотой глобус, 2002 год[/color]
[b]Победитель (1):[/b]
Лучший мини-сериал или фильм на ТВ
[b]Номинации (2):[/b]
Лучший актёр мини-сериала или фильма на ТВ (Дэмиэн Льюис)
Лучший актёр второго плана мини-сериала или фильма на ТВ (Рон Ливингстон)
[color=green]Эмми, 2002 год[/color]
[b]Победитель (1):[/b]
Лучший мини-сериал
[b]Номинации (1):[/b]
Лучшие вступительные титры
[/spoiler]

[b]Релиз Группа | Автор Рипа: [/b] [img]http://firepic.org/images/2011-08/87ravbesc08d4xkn361vfwvqz.gif[/img] [img]http://firepic.org/images/2012-11/18/d6hjefptht1u.gif[/img]



   Похожие торренты   Торрент   Размер 
В этой теме нет новых непрочитанных сообщений. Братья по оружию / Band of Brothers [01-10 из 10] (2001) BDRip 720p от MediaClub

53 | 54

50.94 ГБ

В этой теме нет новых непрочитанных сообщений. Братья по оружию / Band of Brothers [01-10 из 10] (2001) BDRip от HQCLUB

34 | 5

14.08 ГБ

В этой теме нет новых непрочитанных сообщений. Братья по оружию / Band of Brothers [01-10 из 10] (2001) BDRip от HQ-ViDEO

96 | 91

16.18 ГБ

В этой теме нет новых непрочитанных сообщений. Братья по оружию / Band of Brothers (2001) BDRip 1080 от HDReactor

94 | 112

67.97 ГБ

В этой теме нет новых непрочитанных сообщений. Братья по оружию / Band of Brothers [S01] (2001) HDRip от Scarabey | Р

757 | 107

9.58 ГБ

В этой теме нет новых непрочитанных сообщений. Братья по оружию / Band of Brothers [01-10 из 10] (2001) HDTVRip от HqRipAll

175 | 33

6.84 ГБ

В этой теме нет новых непрочитанных сообщений. Братья по оружию / Band of Brothers [01-10 из 10] (2001) HDDVDRip 720р

1 | 2

47.41 ГБ




Вы не можете начинать темы
Вы не можете отвечать на сообщения
Вы не можете редактировать свои сообщения
Вы не можете удалять свои сообщения
Вы не можете добавлять вложения

Перейти:  
Для Мосгорсуда, Роскомнадзора и рекламодателей: mosgorsud-torrent[собачка]yandex.ru
Настройки
ppkBB3cker v.2 © 2008-2014 @ PPK
[ Time : 0.580s | 15 Queries | GZIP : Off ]
CGP [Extreme] output time : 0.00102s | 0 Queries | GZIP : Off

Торрент трекер RUTOR.IN, Не можете зайти на rutor.org? Какой новый адрес рутор? Какое зеркало рутор? Не работает rutor.org и зеркала? Тогда наш торрент специально для вас. Rutor.in неофициальное зеркало rutor. В случае если у Вас заблокирован rutor или вдруг Вы не можете на него зайти, то Вы без труда сможете скачать бесплатно и без рекламы последние новинки кино, игр, сериалов и прочего у нас, на Rutor.in. Не нужно использовать прокси, чтобы зайти на рутор, достаточно воспользоваться нашим ресурсом. Все новые фильмы, игры, сериалы, книги и музыка за 2013 и 2014 годы через торрент бесплатно. Скачивайте фильмы в хорошем качестве, игры для пк, xbox, playstation без регистрации. У нас вы найдете новые Зарубежные сериалы и Русские сериалы 2013, 2014, 2015 годов. Оставайтесь с нами, качайте любимые фильмы, игры, сериалы, книги и музыку.