img image001 image001 image001 image001 image001 image001 image001 image001 image001 image001 image001 image001 image001 image001 image001 image001

Planets Sun Sun Sun
Статистика раздачи
Автор: Снежана | Размер: 7.26 ГБ | Добавлен: 25 июл 2013
Раздают: 22    Качают: 5
Скачать торрент
Скачать торрент
Описание торрента

СообщениеДобавлено: 25 июл 2013 

#77

Название: Викинги
Оригинальное название: Vikings
Год выпуска: 2013
Жанр: Историческая драма, исторические приключения, боевик, викинги
Режиссер: Киаран Доннелли, Йохан Ренк, Кен Джиротти
В ролях: Трэвис Фиммел, Клайв Стэнден, Кэтрин Уинник, Гэбриел Бирн, Джессалин Гилсиг, Густаф Скарсгард, Джефферсон Холл, Джордж Благден, Тадж Мерфи, Диармэйд Мурта

Описание: Сериал рассказывает об отряде викингов Рагнара. Он восстал, чтобы стать королём племён викингов. Норвежская легенда гласит, что он был прямым потомком Одина, бога войны и воинов.

Страна: Ирландия, Канада, Irish Film Board, Take 5 Productions, World 2000 Entertainment
Продолжительность: 9 x ~ 00:44:00
Перевод: Профессиональный многоголосый (BaibaKo)


Качество: WEB-DLRip (AVC)
Видео: MPEG-4 AVC, ~ 2223 Кбит/с, 1024x576
Аудио rus: AC3, 6 ch, 384 Кбит/с

Семпл

Полное имя: M:Vikings.AVC.tahiy.1.sezon.Vikings.01.AVC.tahiy.mkv
Формат : Matroska
Версия формата : Version 2
Размер файла : 825 Мбайт
Продолжительность : 44 м.
Общий поток : 2611 Кбит/сек
Название фильма : - = Rip by tahiy = -
Дата кодирования : UTC 2013-05-05 18:03:27
Программа кодирования : mkvmerge v4.0.0 ('The Stars were mine') сборка от Jun 6 2010 16:18:42
Библиотека кодирования : libebml v1.0.0 + libmatroska v1.0.0

Видео
Идентификатор : 1
Формат : AVC
Формат/Информация : Advanced Video Codec
Профиль формата : High@L4.1
Параметр CABAC формата : Да
Параметр ReFrames формата : 8 кадров
Идентификатор кодека : V_MPEG4/ISO/AVC
Продолжительность : 44 м.
Битрейт : 2225 Кбит/сек
Ширина : 1024 пикселя
Высота : 576 пикселей
Соотношение сторон : 16:9
Частота кадров : 23,976 кадра/сек
Цветовое пространство : YUV
Субдискретизация насыщенности : 4:2:0
Битовая глубина : 8 бит
Тип развёртки : Прогрессивная
Бит/(Пиксели*Кадры) : 0.157
Размер потока : 687 Мбайт (83%)
Заголовок : - = Rip by tahiy = -
Библиотека кодирования : x264 core 129 r2245 bc13772
Настройки программы : cabac=1 / ref=8 / deblock=1:-2:-1 / analyse=0x3:0x133 / me=hex / subme=9 / psy=1 / psy_rd=1.00:0.20 / mixed_ref=1 / me_range=16 / chroma_me=1 / trellis=2 / 8x8dct=1 / cqm=0 / deadzone=21,11 / fast_pskip=0 / chroma_qp_offset=-3 / threads=3 / lookahead_threads=1 / sliced_threads=0 / nr=0 / decimate=1 / interlaced=0 / bluray_compat=0 / constrained_intra=0 / bframes=3 / b_pyramid=2 / b_adapt=1 / b_bias=0 / direct=3 / weightb=1 / open_gop=0 / weightp=2 / keyint=240 / keyint_min=23 / scenecut=40 / intra_refresh=0 / rc_lookahead=40 / rc=2pass / mbtree=1 / bitrate=2225 / ratetol=1.0 / qcomp=0.60 / qpmin=10 / qpmax=51 / qpstep=4 / cplxblur=20.0 / qblur=0.5 / ip_ratio=1.40 / aq=1:1.00
Язык : English
Default : Да
Forced : Да

Аудио
Идентификатор : 2
Формат : AC-3
Формат/Информация : Audio Coding 3
Расширение режима : CM (complete main)
Идентификатор кодека : A_AC3
Продолжительность : 44 м.
Вид битрейта : Постоянный
Битрейт : 384 Кбит/сек
Каналы : 6 каналов
Расположение каналов : Front: L C R, Side: L R, LFE
Частота : 48,0 КГц
Битовая глубина : 16 бит
Метод сжатия : С потерями
Размер потока : 121 Мбайт (15%)
Язык : Russian
Default : Да
Forced : Да


01. Обряды / Rites of Passage
02. Гнев северян / Wrath of Northmen
03. Обездоленные / Dispossessed
04. Испытание / Trail
05. Набег / Raid
06. Погребение мертвых / Burial of the Dead
07. Королевский выкуп / A King's Ransom
08. Жертвоприношение / Sacrifice
09. Все изменится / All Change





Релиз от:



   Похожие торренты   Торрент   Размер 
В этой теме нет новых непрочитанных сообщений. Викинги / Vikings [S01] (2013) WEB-DLRip | BaibaKo

281 | 126

7.04 ГБ

В этой теме нет новых непрочитанных сообщений. Викинги / Vikings [S01-02] (2013-2014) WEB-DLRip | BaibaKo

47 | 21

14.29 ГБ

В этой теме нет новых непрочитанных сообщений. Викинги / Vikings [S01-02] (2013-2014) WEB-DLRip-AVC | BaibaKo

87 | 26

15.17 ГБ

В этой теме нет новых непрочитанных сообщений. Викинги / Vikings [S01-02] (2013-2014) WEB-DLRip от Generalfilm | КПК | Baibako

169 | 53

3.7 ГБ

В этой теме нет новых непрочитанных сообщений. Викинги / Vikings [02x01-08 из 10] (2014) WEB-DLRip | BaibaKo

283 | 792

5.83 ГБ

В этой теме нет новых непрочитанных сообщений. Викинги / Vikings [02x01-04 из 10] (2014) WEB-DLRip-AVC | BaibaKo

86 | 201

3.21 ГБ

В этой теме нет новых непрочитанных сообщений. Викинги / Vikings [02x01-08 из 10] (2014) WEB-DLRip-AVC | BaibaKo

60 | 156

6.39 ГБ




Вы не можете начинать темы
Вы не можете отвечать на сообщения
Вы не можете редактировать свои сообщения
Вы не можете удалять свои сообщения
Вы не можете добавлять вложения

Перейти:  
 Вход
ppkBB3cker v.2 © 2008-2014 @ PPK
[ Time : 0.050s | 17 Queries | GZIP : Off ]

cron