img image001 image001 image001 image001 image001 image001 image001 image001 image001 image001 image001 image001 image001 image001 image001

Planets Sun Sun Sun
Статистика раздачи
Автор: Снежана | Размер: 16.45 ГБ | Добавлен: 25 июл 2013
Раздают: 5    Качают: 2
Скачать торрент
Скачать торрент
Описание торрента

СообщениеДобавлено: 25 июл 2013 

Американская семейка / Modern Family
«One big (straight, gay, multi-cultural, traditional) happy family.»





Общая информация

Год выпуска: 2012
Страна: США
Жанр: Comedy
Жанр iTunes: Comedy
Продолжительность: ~ 0:21:00
Перевод: Профессиональный (многоголосый, закадровый) - LostFilm
Видео:
720p - H.264, ~4000 kbps avg, 1280 x 720 (16:9), 23.976 fps
Аудио:
АС3 5.1 384 kbps - Английский / Профессиональный (многоголосый, закадровый) - LostFilm
АAC 2.0 160 kbps - Английский / Профессиональный (многоголосый, закадровый) - LostFilm
Cубтитры:
нет

Создатели и актеры

Режиссёр:
Майкл Спиллер, Фред Сэвидж, Джейсон Уайнер
Сценарий:
Стивен Левитан, Абрахам Хиггинботэм, Илана Верник
Продюсер:
Джеффри Мортон, Абрахам Хиггинботэм, Джеффри Ричманн
В ролях:
Эд О’Нил (Джей Притчетт), София Вергара (Глория), Джуля Боуэн (Клэр Дельгадо), Тай Беррел (Фил Дельгадо), Джесси Тайлер Фергюсон (Митчелл Данфи), Эрик Стоунстрит (Камерон)

Описание :
Джей Притчетт познакомился со сногсшибательной колумбийкой Глорией, когда она в бикини подавала ему коктейли на вечеринке, которую он устроил в день ухода его первой жены. Теперь Джей и Глория женаты, и Джей изо всех сил старается не отставать от молодой красотки-жены и ее сына Мэни.
В семье Клэр Данфи тоже не все гладко. Ее муж Фил — просто замечательный, но он считает, что «свой в доску» для детей, чем их сильно смущает.
А сын Джея Митчелл и его партнер Камерон только что удочерили Лили, очаровательного младенца из Вьетнама.


01. «Разговоры о ребенке» («Bringing Up Baby»)
02. «Обучение» («Schooled»)
03. «Чик-чик» («Snip»)
04. «Побег дворецкого» («The Butler's Escape»)
05. «Открытый дом ужасов» («Open House of Horrors»)
06. «Распродажа во дворе» («Yard Sale»)
07. «Арестованная» («Arrested»)
08. «Загадочное свидание» («Mistery Date»)
09. «Когда дерево падает» («When a Tree Falls» )
10. «Неограненный алмаз» («Diamond in the Rough»)
11. «Канун Нового года» («New Year's Eve»)
12. «Разрушитель вечеринки» («Party Crasher»)
13. «Фульхенсио» («Fulgencio»)
14. «Слабак оперы» («A Slight at the Opera»)
15. «Разбитое сердце» («Heart Broken»)
16. «Странная прическа» («Bad Hair Day»)
17. «Шаферы» («Best Men»)
18. «Вау-фактор» («The Wow Factor»)
19. «Будущие Данфи» («The Future Dunphys»)
20. «Прыг-скок» («Flip Flop»)
21. «День карьеры» («Career Day»)
Sort Album: Modern Family, Season 4
iTunes Country: 143441
XID: FoxTV:vendor_id:ABC_ModernFamily_4ARG01
genreID: 4000
playlistID: 550719281
artistID: 327827175
contentID: 564563259
Copyright: © 2012 Twentieth Century Fox Film Corporation.  All rights reserved.
Rating: 12
Long Deion: Jay's birthday is upon us again and, as before, he makes it well-known that he wishes to keep it as low key as possible, with no grand gestures or surprises. But leave it to the family to miss the mark yet again! Phil takes Jay on a very unconventional fishing trip with his buddies, and Gloria struggles with how to break the pregnancy news to him. Meanwhile, Dylan moves into the Dunphy household temporarily, and Mitch and Cam decide to look into adopting a cat as they continue to cope with their failed attempt to adopt another child.
Deion: Jay's birthday is upon us again and, as before, he makes it well-known that he wishes to keep it as
TV Season: 4
TV Episode ID: 4ARG01
TV Network: ABC
TV Episode #: 1
TV Show: Modern Family
Disk #: 1/1
Track #: 1/0
Release Date: 2012-09-26T07:00:00Z
Genre: Comedy
Album: Modern Family
Album Artist: Modern Family
Artist: Modern Family
Name: Bringing Up Baby

General
Complete name : /Volumes/music/iTunes/TV Shows/Modern Family/Season 4/01 Bringing Up Baby (HD).m4v
Format : MPEG-4
Codec ID : M4V
File size : 794 MiB
Duration : 21mn 38s
Overall bit rate : 5 130 Kbps
Movie name : Bringing Up Baby
Album : Modern Family
Album/Performer : Modern Family
Part/Position : 1
Part/Total : 1
Track name/Position : 1
Track name/Total : 0
Performer : Modern Family
Genre : Comedy
Recorded date : UTC 2012-09-26 07:00:00
Encoded date : UTC 2012-10-06 05:22:42
Tagged date : UTC 2012-10-06 11:38:47
Copyright : � 2012 Twentieth Century Fox Film Corporation. All rights reserved.
Cover : Yes
tvsh : Modern Family
tvnn : ABC
tven : 4ARG01
tvsn : 4
tves : 1
soal : Modern Family, Season 4
desc : Jay's birthday is upon us again and, as before, he makes it well-known that he wishes to keep it as
ldes : Jay's birthday is upon us again and, as before, he makes it well-known that he wishes to keep it as low key as possible, with no grand gestures or surprises. But leave it to the family to miss the mark yet again! Phil takes Jay on a very unconventional fishing trip with his buddies, and Gloria struggles with how to break the pregnancy news to him. Meanwhile, Dylan moves into the Dunphy household temporarily, and Mitch and Cam decide to look into adopting a cat as they continue to cope with their failed attempt to adopt another child.
hdvd : 1
stik : 10
rtng : 0
sfID : 143441
cnID : 564563259
atID : 327827175
plID : 550719281
geID : 4000
xid : FoxTV:vendor_id:ABC_ModernFamily_4ARG01
iTunEXTC : us-tv|TV-PG|400|

Video
ID : 1
Format : AVC
Format/Info : Advanced Video Codec
Format profile : High@L3.1
Format settings, CABAC : No
Format settings, ReFrames : 2 frames
Codec ID : avc1
Codec ID/Info : Advanced Video Coding
Duration : 21mn 38s
Bit rate mode : Variable
Bit rate : 4 082 Kbps
Width : 1 280 pixels
Height : 708 pixels
Display aspect ratio : 16:9
Frame rate mode : Constant
Frame rate : 23.976 fps
Color space : YUV
Chroma subsampling : 4:2:0
Bit depth : 8 bits
Scan type : Progressive
Bits/(Pixel*Frame) : 0.188
Stream size : 632 MiB (80%)
Language : English
Encoded date : UTC 2012-10-06 05:22:42
Tagged date : UTC 2012-10-06 05:23:08
Color primaries : BT.709-5, BT.1361, IEC 61966-2-4, SMPTE RP177
Transfer characteristics : BT.709-5, BT.1361
Matrix coefficients : BT.709-5, BT.1361, IEC 61966-2-4 709, SMPTE RP177

Audio #1
ID : 2
Format : AAC
Format/Info : Advanced Audio Codec
Format profile : LC
Codec ID : 40
Duration : 21mn 38s
Bit rate mode : Variable
Bit rate : 132.3 Kbps
Maximum bit rate : 240 Kbps
Channel(s) : 2 channels
Channel positions : Front: L R
Sampling rate : 44.1 KHz
Compression mode : Lossy
Stream size : 20.5 MiB (3%)
Language : Russian
Encoded date : UTC 2012-10-06 05:22:42
Tagged date : UTC 2012-10-06 05:22:44

Audio #2
ID : 3
Format : AAC
Format/Info : Advanced Audio Codec
Format profile : LC
Codec ID : 40
Duration : 21mn 38s
Bit rate mode : Variable
Bit rate : 138 Kbps
Maximum bit rate : 262 Kbps
Channel(s) : 2 channels
Channel positions : Front: L R
Sampling rate : 48.0 KHz
Compression mode : Lossy
Stream size : 21.4 MiB (3%)
Language : English
Encoded date : UTC 2012-10-06 05:22:42
Tagged date : UTC 2012-10-06 05:23:28

Audio #3
ID : 4
Format : AC-3
Format/Info : Audio Coding 3
Mode extension : CM (complete main)
Codec ID : ac-3
Duration : 21mn 38s
Bit rate mode : Constant
Bit rate : 384 Kbps
Channel(s) : 6 channels
Channel positions : Front: L C R, Side: L R, LFE
Sampling rate : 48.0 KHz
Bit depth : 16 bits
Compression mode : Lossy
Stream size : 59.4 MiB (7%)
Language : Russian
Encoded date : UTC 2012-10-06 05:22:42
Tagged date : UTC 2012-10-06 05:22:50

Audio #4
ID : 5
Format : AC-3
Format/Info : Audio Coding 3
Mode extension : CM (complete main)
Codec ID : ac-3
Duration : 21mn 38s
Bit rate mode : Constant
Bit rate : 384 Kbps
Channel(s) : 6 channels
Channel positions : Front: L C R, Side: L R, LFE
Sampling rate : 48.0 KHz
Bit depth : 16 bits
Compression mode : Lossy
Stream size : 59.4 MiB (7%)
Language : English
Encoded date : UTC 2012-10-06 05:22:42
Tagged date : UTC 2012-10-06 05:23:39

Text #1
ID : 6
Format : Timed text
Muxing mode : sbtl
Codec ID : tx3g
Duration : 21mn 3s
Bit rate mode : Variable
Bit rate : 233 bps
Stream size : 36.0 KiB (0%)
Language : Russian
Encoded date : UTC 2012-10-06 05:22:42
Tagged date : UTC 2012-10-06 05:22:50

Text #2
ID : 7
Format : Timed text
Muxing mode : sbtl
Codec ID : tx3g
Duration : 20mn 57s
Bit rate mode : Variable
Bit rate : 135 bps
Stream size : 20.7 KiB (0%)
Language : English
Encoded date : UTC 2012-10-06 05:22:42
Tagged date : UTC 2012-10-06 05:22:50



Релиз подготовлен специально для просмотра на Apple TV, iPad.
Пользователям Windows рекомендуется просматривать в VLC.



   Похожие торренты   Торрент   Размер 
В этой теме нет новых непрочитанных сообщений. Американская семейка / Modern Family [4x01-20] (2012) WEB-DLRip | Кубик в Кубе

4 | 2

4.74 ГБ

В этой теме нет новых непрочитанных сообщений. Американская семейка / Modern Family [S04] (2012) WEB-DLRip | LostFilm

152 | 9

7.56 ГБ

В этой теме нет новых непрочитанных сообщений. Американская семейка / Modern Family [05x01-20 из 24] (2013) WEB-DL 720p | LostFilm

3 | 23

14.67 ГБ

В этой теме нет новых непрочитанных сообщений. Американская семейка / Modern Family [05x01-18 из 24] (2013) WEB-DL 720p | LostFilm

10 | 64

13.24 ГБ

В этой теме нет новых непрочитанных сообщений. Американская семейка / Modern Family [05x01-14 из 24] (2013) WEB-DL 720p | LostFilm

11 | 53

10.35 ГБ

В этой теме нет новых непрочитанных сообщений. Американская семейка / Modern Family [05x01-22 из 24] (2013) WEB-DL 720p | LostFilm

0 | 2

16.14 ГБ

В этой теме нет новых непрочитанных сообщений. Американская семейка / Modern Family [05x01-15 из 24] (2013) WEB-DL 720p | LostFilm

1 | 34

11.04 ГБ




Вы не можете начинать темы
Вы не можете отвечать на сообщения
Вы не можете редактировать свои сообщения
Вы не можете удалять свои сообщения
Вы не можете добавлять вложения

Перейти:  
Для Мосгорсуда, Роскомнадзора и рекламодателей: mosgorsud-torrent[собачка]yandex.ru
 Вход
ppkBB3cker v.2 © 2008-2014 @ PPK
[ Time : 0.520s | 15 Queries | GZIP : Off ]

Торрент трекер RUTOR.IN, Не можете зайти на rutor.org? Какой новый адрес рутор? Какое зеркало рутор? Не работает rutor.org и зеркала? Тогда наш торрент специально для вас. Rutor.in неофициальное зеркало rutor. В случае если у Вас заблокирован rutor или вдруг Вы не можете на него зайти, то Вы без труда сможете скачать бесплатно и без рекламы последние новинки кино, игр, сериалов и прочего у нас, на Rutor.in. Не нужно использовать прокси, чтобы зайти на рутор, достаточно воспользоваться нашим ресурсом. Все новые фильмы, игры, сериалы, книги и музыка за 2013 и 2014 годы через торрент бесплатно. Скачивайте фильмы в хорошем качестве, игры для пк, xbox, playstation без регистрации. У нас вы найдете новые Зарубежные сериалы и Русские сериалы 2013, 2014, 2015 годов. Оставайтесь с нами, качайте любимые фильмы, игры, сериалы, книги и музыку.
cron