img image001 image001 image001 image001 image001 image001 image001 image001 image001 image001 image001 image001 image001 image001 image001

Planets Sun Sun Sun
Статистика раздачи
Автор: Снежана | Размер: 3.44 ГБ | Добавлен: 26 июл 2013
Раздают: 470    Качают: 42
Скачать торрент
Скачать торрент
Описание торрента

СообщениеДобавлено: 26 июл 2013 

«Будем бить врага до последней капли крови»



#77
Год выпуска: 2004
Выпущено: Россия / Первый канал

Жанр: боевик, военный
Продолжительность: 00:52:13 + 00:49:49 + 00:51:56 + 00:51:59

Перевод: не требуется
Оригинальная аудиодорожка: русский
Субтитры: нет

Режиссер: Андрей Малюков

В ролях: Алексей Бардуков, Владислав Галкин, Кирилл Плетнёв, Александр Лыков, Вилле Хаапасало, Владимир Меньшов, Михаил Ефремов, Андрей Краско, Ксения Кузнецова, Игорь Ливанов...

Описание: От создателей фильма "Спецназ". Проект посвящен разведчикам-диверсантам. Действие происходит в 1942 году. Молодые ребята, выпускники разведшколы, разрабатывают и выполняют сверхсложные операции в тылу врага. Тема, поднятая в фильме, получила совершенно новое и неоднозначное развитие и вышла на принципиально иной художественный уровень благодаря напряженному движению сюжета и безукоризненной реализации стилистической задачи. Помимо художественного, проект "Диверсант" имеет большое общественно-политическое значение.






Качество видео: DVDRip [DVD9 R5]
Формат видео: AVI

Видео: 720x416 (1.731:1), XviD 2000 Кбит/сек 25,000 fps / Бит/(Пиксели*Кадры): 0.267
Аудио: Dolby Digital Audio Russian 384 kbps 5.1 / 48 kHz

Раздача от:
Общее
Полное имя : Diversant.2004.O.DVDRip_[Youtracker]_by_avproh1.avi
Формат : AVI
Формат/Информация : Audio Video Interleave
Размер файла : 894 Мбайт
Продолжительность : 52 м.
Общий поток : 2393 Кбит/сек
Программа кодирования : VirtualDubModRus 1.5.10.2 (build 2542/release)
Библиотека кодирования : VirtualDubMod build 2542/release

Видео
Идентификатор : 0
Формат : MPEG-4 Visual
Профиль формата : Advanced Simple@L5
Параметр BVOP формата : 1
Параметр QPel формата : Нет
Параметр GMC формата : Без точки перехода
Параметр матрицы формата : Выборочная
Идентификатор кодека : XVID
Идентификатор кодека/Подсказка : XviD
Продолжительность : 52 м.
Битрейт : 1999 Кбит/сек
Ширина : 720 пикселей
Высота : 416 пикселей
Соотношение сторон : 1,731
Частота кадров : 25,000 кадров/сек
Цветовое пространство : YUV
Субдискретизация насыщенности : 4:2:0
Битовая глубина : 8 бит
Тип развёртки : Прогрессивная
Метод сжатия : С потерями
Бит/(Пиксели*Кадры) : 0.267
Размер потока : 747 Мбайт (84%)
Библиотека кодирования : XviD 65

Аудио
Идентификатор : 1
Формат : AC-3
Формат/Информация : Audio Coding 3
Расширение режима : CM (complete main)
Параметр Endianness формата : Big
Идентификатор кодека : 2000
Продолжительность : 52 м.
Вид битрейта : Постоянный
Битрейт : 384 Кбит/сек
Каналы : 6 каналов
Расположение каналов : Front: L C R, Side: L R, LFE
Частота : 48,0 КГц
Битовая глубина : 16 бит
Метод сжатия : С потерями
Размер потока : 143 Мбайт (16%)
Выравнивание : Разделение по промежуткам
Продолжительность промежутка : 40 мс. (1,00 видеокадр)
Время предзагрузки промежутка : 500 мс.



http://rutor.org/torrent/127586/

http://screenshotcomparison.com/comparison/22741 - по нему видно, что и качество хуже и перекроп по всем сторонам у конкурента. У конкурента у всех серий обрезана заставка начала, что не принято. Зато в конце серии почему-то присутствует та самая заставка плюс небольшой кусок титров той же серии.



   Похожие торренты   Торрент   Размер 
В этой теме нет новых непрочитанных сообщений. Диверсант [01-04 из 04] (2004) DVDRip-AVC от Youtracker

274 | 42

3.44 ГБ

В этой теме нет новых непрочитанных сообщений. Диверсант [S01-02] (2004-2007) DVDRip

27 | 15

9.74 ГБ

В этой теме нет новых непрочитанных сообщений. Диверсант 1-2 [1-2 ч 01-14 из 14] (2004-2007) DVDRip от MediaClub | КПК

3853 | 847

3.13 ГБ

В этой теме нет новых непрочитанных сообщений. Диверсант + Диверсант2: Конец Войны (2004-2007) DVDRip | КПК от R.G.RealMT

1479 | 202

1.8 ГБ

В этой теме нет новых непрочитанных сообщений. Диверсант [01-04 из 04] (2004) HDTVRip-AVC

867 | 93

3.1 ГБ

В этой теме нет новых непрочитанных сообщений. Диверсант (2004) 2хDVD5

167 | 31

8.06 ГБ

В этой теме нет новых непрочитанных сообщений. Диверсант [01x01-04 из 4] (2004) HDTVRip (720p) от Files-x

631 | 82

5.22 ГБ




Вы не можете начинать темы
Вы не можете отвечать на сообщения
Вы не можете редактировать свои сообщения
Вы не можете удалять свои сообщения
Вы не можете добавлять вложения

Перейти:  
Для Мосгорсуда, Роскомнадзора и рекламодателей: mosgorsud-torrent[собачка]yandex.ru
 Вход
ppkBB3cker v.2 © 2008-2014 @ PPK
[ Time : 0.072s | 14 Queries | GZIP : Off ]

Торрент трекер RUTOR.IN, Не можете зайти на rutor.org? Какой новый адрес рутор? Какое зеркало рутор? Не работает rutor.org и зеркала? Тогда наш торрент специально для вас. Rutor.in неофициальное зеркало rutor. В случае если у Вас заблокирован rutor или вдруг Вы не можете на него зайти, то Вы без труда сможете скачать бесплатно и без рекламы последние новинки кино, игр, сериалов и прочего у нас, на Rutor.in. Не нужно использовать прокси, чтобы зайти на рутор, достаточно воспользоваться нашим ресурсом. Все новые фильмы, игры, сериалы, книги и музыка за 2013 и 2014 годы через торрент бесплатно. Скачивайте фильмы в хорошем качестве, игры для пк, xbox, playstation без регистрации. У нас вы найдете новые Зарубежные сериалы и Русские сериалы 2013, 2014, 2015 годов. Оставайтесь с нами, качайте любимые фильмы, игры, сериалы, книги и музыку.