img image001 image001 image001 image001 image001 image001 image001 image001 image001 image001 image001 image001 image001 image001 image001

Planets Sun Sun Sun
Статистика раздачи
Автор: Снежана | Размер: 3.44 ГБ | Добавлен: 25 июл 2013
Раздают: 274    Качают: 42
Скачать торрент
Скачать торрент
Описание торрента

СообщениеДобавлено: 25 июл 2013 

«Будем бить врага до последней капли крови»



#77
Год выпуска: 2004
Выпущено: Россия / Первый канал

Жанр: боевик, военный
Продолжительность: 00:52:13 + 00:49:49 + 00:51:56 + 00:51:59

Перевод: не требуется
Оригинальная аудиодорожка: русский
Субтитры: нет

Режиссер: Андрей Малюков

В ролях: Алексей Бардуков, Владислав Галкин, Кирилл Плетнёв, Александр Лыков, Вилле Хаапасало, Владимир Меньшов, Михаил Ефремов, Андрей Краско, Ксения Кузнецова, Игорь Ливанов...

Описание: От создателей фильма "Спецназ". Проект посвящен разведчикам-диверсантам. Действие происходит в 1942 году. Молодые ребята, выпускники разведшколы, разрабатывают и выполняют сверхсложные операции в тылу врага. Тема, поднятая в фильме, получила совершенно новое и неоднозначное развитие и вышла на принципиально иной художественный уровень благодаря напряженному движению сюжета и безукоризненной реализации стилистической задачи. Помимо художественного, проект "Диверсант" имеет большое общественно-политическое значение.






Качество видео: DVDRip-AVC [DVD9 R5]
Формат видео: MKV

Видео: 720x448@764x448 (1.708:1), H264 2006 Кбит/сек 25,000 fps / Бит/(Пиксели*Кадры): 0.249
Аудио: Dolby Digital Audio Russian 384 kbps 5.1 / 48 kHz

Раздача от:
Общее
Полное имя : Diversant.2004.O.DVDRip-AVC_[Youtracker]_by_avproh1.mkv
Формат : Matroska
Версия формата : Version 4 / Version 2
Размер файла : 893 Мбайт
Продолжительность : 52 м.
Общий поток : 2391 Кбит/сек
Дата кодирования : UTC 2013-05-09 11:50:39
Программа кодирования : mkvmerge v6.1.0 ('Old Devil') built on Mar 2 2013 14:32:37
Библиотека кодирования : libebml v1.3.0 + libmatroska v1.4.0

Видео
Идентификатор : 1
Формат : AVC
Формат/Информация : Advanced Video Codec
Профиль формата : High@L4.1
Параметр CABAC формата : Да
Параметр ReFrames формата : 11 кадров
Идентификатор кодека : V_MPEG4/ISO/AVC
Продолжительность : 52 м.
Битрейт : 2006 Кбит/сек
Ширина : 720 пикселей
Высота : 448 пикселей
Соотношение сторон : 1,708
Соотношение сторон в оригинале : 1,710
Режим частоты кадров : Постоянный
Частота кадров : 25,000 кадров/сек
Цветовое пространство : YUV
Субдискретизация насыщенности : 4:2:0
Битовая глубина : 8 бит
Тип развёртки : Прогрессивная
Бит/(Пиксели*Кадры) : 0.249
Размер потока : 732 Мбайт (82%)
Библиотека кодирования : x264 core 119 r2106 07efeb4
Настройки программы : cabac=1 / ref=11 / deblock=1:-2:-1 / analyse=0x3:0x113 / me=umh / subme=9 / psy=1 / psy_rd=1.00:0.20 / mixed_ref=1 / me_range=32 / chroma_me=1 / trellis=1 / 8x8dct=1 / cqm=0 / deadzone=21,11 / fast_pskip=0 / chroma_qp_offset=-3 / threads=9 / sliced_threads=0 / nr=0 / decimate=0 / interlaced=0 / bluray_compat=0 / constrained_intra=0 / bframes=8 / b_pyramid=2 / b_adapt=2 / b_bias=0 / direct=3 / weightb=1 / open_gop=0 / weightp=2 / keyint=250 / keyint_min=25 / scenecut=40 / intra_refresh=0 / rc_lookahead=60 / rc=2pass / mbtree=1 / bitrate=2006 / ratetol=1.0 / qcomp=0.60 / qpmin=0 / qpmax=69 / qpstep=4 / cplxblur=20.0 / qblur=0.5 / ip_ratio=1.40 / aq=1:1.00
Язык : Russian
Default : Да
Forced : Нет

Аудио
Идентификатор : 2
Формат : AC-3
Формат/Информация : Audio Coding 3
Расширение режима : CM (complete main)
Параметр Endianness формата : Big
Идентификатор кодека : A_AC3
Продолжительность : 52 м.
Вид битрейта : Постоянный
Битрейт : 384 Кбит/сек
Каналы : 6 каналов
Расположение каналов : Front: L C R, Side: L R, LFE
Частота : 48,0 КГц
Битовая глубина : 16 бит
Метод сжатия : С потерями
Размер потока : 143 Мбайт (16%)
Язык : Russian
Default : Да
Forced : Нет



http://rutor.org/torrent/112855/

Краткое описание релиза конкурента:
1. Сверху и снизу не обрезаны черные полосы. Для первого сезона чернота составляет 150 пикселей, для второго - 132 пикселя. Это не недокроп, а просто катастрофа.
2. Раздача не анаморфна, что по моим подсчетам привело к ошибке в аспекте 6.1%, что для AVC считается неприемлемым.
3. Раздача выполнена в виде файлов формата *.mp4, хотя фактическим стандартом во всем мире для AVC является MKV.
4. Частота кадров составляет 29.97 фпс. Цитата из его MI:
Частота кадров : 29,970 кадров/сек
Частота кадров в оригинале : 24,000 кадра/сек
Стандарт вещания : PAL
Для чего это необходимо было делать?
5. Зачем было перекодировать оригинальный звук АС3 384 кбпс в какой-то ААС с переменным битрейтом, который нельзя послушать на большинстве телевизоров?
6. Неоправданно задран битрейт, что привело к общему размеру двух сезонов из 14-и серий аж 14.1 ГБ.
7. Как сравнивать такие кадры, я право не знаю, но вот попробовал: вот так http://screenshotcomparison.com/comparison/22838, ну или так - http://screenshotcomparison.com/comparison/22839



   Похожие торренты   Торрент   Размер 
В этой теме нет новых непрочитанных сообщений. Диверсант [01-04 из 04] (2004) DVDRip от Youtracker

470 | 42

3.44 ГБ

В этой теме нет новых непрочитанных сообщений. Диверсант [S01-02] (2004-2007) DVDRip

27 | 15

9.74 ГБ

В этой теме нет новых непрочитанных сообщений. Диверсант 1-2 [1-2 ч 01-14 из 14] (2004-2007) DVDRip от MediaClub | КПК

3853 | 847

3.13 ГБ

В этой теме нет новых непрочитанных сообщений. Диверсант + Диверсант2: Конец Войны (2004-2007) DVDRip | КПК от R.G.RealMT

1498 | 204

1.8 ГБ

В этой теме нет новых непрочитанных сообщений. Диверсант (2004) 2хDVD5

167 | 31

8.06 ГБ

В этой теме нет новых непрочитанных сообщений. Диверсант [01-04 из 04] (2004) HDTVRip-AVC

996 | 106

3.1 ГБ

В этой теме нет новых непрочитанных сообщений. Диверсант [01x01-04 из 4] (2004) HDTVRip (720p) от Files-x

662 | 86

5.22 ГБ




Вы не можете начинать темы
Вы не можете отвечать на сообщения
Вы не можете редактировать свои сообщения
Вы не можете удалять свои сообщения
Вы не можете добавлять вложения

Перейти:  
Для Мосгорсуда, Роскомнадзора и рекламодателей: mosgorsud-torrent[собачка]yandex.ru
 Вход
ppkBB3cker v.2 © 2008-2014 @ PPK
[ Time : 0.029s | 16 Queries | GZIP : Off ]

Торрент трекер RUTOR.IN, Не можете зайти на rutor.org? Какой новый адрес рутор? Какое зеркало рутор? Не работает rutor.org и зеркала? Тогда наш торрент специально для вас. Rutor.in неофициальное зеркало rutor. В случае если у Вас заблокирован rutor или вдруг Вы не можете на него зайти, то Вы без труда сможете скачать бесплатно и без рекламы последние новинки кино, игр, сериалов и прочего у нас, на Rutor.in. Не нужно использовать прокси, чтобы зайти на рутор, достаточно воспользоваться нашим ресурсом. Все новые фильмы, игры, сериалы, книги и музыка за 2013 и 2014 годы через торрент бесплатно. Скачивайте фильмы в хорошем качестве, игры для пк, xbox, playstation без регистрации. У нас вы найдете новые Зарубежные сериалы и Русские сериалы 2013, 2014, 2015 годов. Оставайтесь с нами, качайте любимые фильмы, игры, сериалы, книги и музыку.