img image001 image001 image001 image001 image001 image001 image001 image001 image001 image001 image001 image001 image001 image001 image001

Planets Sun Sun Sun
Статистика раздачи
Автор: Снежана | Размер: 15.98 ГБ | Добавлен: 25 июл 2013, 12:22
Раздают: 37    Качают: 12
Скачать торрент
Скачать торрент
Описание торрента

СообщениеДобавлено: 25 июл 2013, 12:22 

#77

Информация о фильме
Название: Привет от «Катюши»
Год выхода: 2013
Жанр: Драма, военный
Режиссер: Константин Статский
В ролях: Александр Устюгов, Анатолий Гущин, Тимофей Трибунцев, Азамат Нигманов, Поля Полякова, Евгений Антропов, Александр Ефремов (II), Надежда Анципович, Сергей Ефремов (II), Антон Жуков, Виталий Котовицкий, Михаил Клименко, Юрий Вутто, Денис Паршин, Игорь Денисов, Вероника Пляшкевич

О фильме:
Ремейк фильма "Отряд особого назначения". Великая Отечественная война. Во время отступления частей Красной Армии, шла переброска секретного оружия – "гвардейских миномётов БМ-13", впоследствии названных "Катюшами". В ходе операции одна машина затонула. Чтобы не допустить ее попадания в руки врага, срочно формируется и забрасывается за линию фронта отряд из нескольких мастеров спорта под командованием Александра Ермакова. Их цель – найти и уничтожить орудие.

Страна: Россия, Mars Media Intertaiment
Продолжительность: 00:43:50
Перевод: Не требуется

Файл
Кодек: h.264
Качество: HDTV (1080i)
Видео: AVC, 1920х1080, 11.6 Mbps
Звук: MP2, 2 ch, 192 Кбит/с

General
ID : 1 (0x1)
Complete name : D:запись с твPrivet.ot.Katyushi.04.seriya.2013.h264.HDTV.Files-x.ts
Format : MPEG-TS
File size : 4.11 GiB
Duration : 47mn 20s
Overall bit rate mode : Variable
Overall bit rate : 12.4 Mbps

Video
ID : 69 (0x45)
Menu ID : 1 (0x1)
Format : AVC
Format/Info : Advanced Video Codec
Format profile : Main@L4.0
Format settings, CABAC : Yes
Format settings, ReFrames : 3 frames
Codec ID : 27
Duration : 47mn 20s
Bit rate : 11.6 Mbps
Width : 1 920 pixels
Height : 1 080 pixels
Display aspect ratio : 16:9
Frame rate : 25.000 fps
Standard : Component
Color space : YUV
Chroma subsampling : 4:2:0
Bit depth : 8 bits
Scan type : Interlaced
Scan order : Top Field First
Bits/(Pixel*Frame) : 0.224
Stream size : 3.84 GiB (93%)
Color primaries : BT.709
Transfer characteristics : BT.709
Matrix coefficients : BT.709

Audio
ID : 68 (0x44)
Menu ID : 1 (0x1)
Format : MPEG Audio
Format version : Version 1
Format profile : Layer 2
Codec ID : 3
Duration : 47mn 20s
Bit rate mode : Constant
Bit rate : 192 Kbps
Channel(s) : 2 channels
Sampling rate : 48.0 KHz
Compression mode : Lossy
Stream size : 65.0 MiB (2%)
Language : Russian




Релиз от:



   Похожие торренты   Торрент   Размер 
В этой теме нет новых непрочитанных сообщений. Привет от «Катюши» [01-04 из 04] (2013) HDTVRip от Files-x

455 | 25

2.15 ГБ

В этой теме нет новых непрочитанных сообщений. Привет от «Катюши» [01-04 из 04] (2013) HDTVRip 720p

32 | 10

7.23 ГБ

В этой теме нет новых непрочитанных сообщений. Привет от Катюши [01-04 из 04] (2013) DVDRip от Generalfilm | КПК

26 | 5

768.05 МБ

В этой теме нет новых непрочитанных сообщений. Привет от Катюши [01-04 из 04] (2013) DVD9 R5 от Youtracker | лицензия

4 | 2

7.7 ГБ

В этой теме нет новых непрочитанных сообщений. Привет от Катюши [01-04 из 04] (2013) DVDRip-AVC от Youtracker | лицензия

21 | 9

3.29 ГБ

В этой теме нет новых непрочитанных сообщений. Привет от Катюши [01-04 из 04] (2013) DVDRip от Youtracker | лицензия

118 | 11

3.29 ГБ

В этой теме нет новых непрочитанных сообщений. Неродной (2013) HDTV 1080i от Files-x

101 | 15

5.06 ГБ




Вы не можете начинать темы
Вы не можете отвечать на сообщения
Вы не можете редактировать свои сообщения
Вы не можете удалять свои сообщения
Вы не можете добавлять вложения

Перейти:  
Для Мосгорсуда, Роскомнадзора и рекламодателей: mosgorsud-torrent[собачка]yandex.ru
Настройки
ppkBB3cker v.2 © 2008-2014 @ PPK
[ Time : 0.028s | 16 Queries | GZIP : Off ]
CGP [Extreme] output time : 0.00023s | 0 Queries | GZIP : Off

Торрент трекер RUTOR.IN, Не можете зайти на rutor.org? Какой новый адрес рутор? Какое зеркало рутор? Не работает rutor.org и зеркала? Тогда наш торрент специально для вас. Rutor.in неофициальное зеркало rutor. В случае если у Вас заблокирован rutor или вдруг Вы не можете на него зайти, то Вы без труда сможете скачать бесплатно и без рекламы последние новинки кино, игр, сериалов и прочего у нас, на Rutor.in. Не нужно использовать прокси, чтобы зайти на рутор, достаточно воспользоваться нашим ресурсом. Все новые фильмы, игры, сериалы, книги и музыка за 2013 и 2014 годы через торрент бесплатно. Скачивайте фильмы в хорошем качестве, игры для пк, xbox, playstation без регистрации. У нас вы найдете новые Зарубежные сериалы и Русские сериалы 2013, 2014, 2015 годов. Оставайтесь с нами, качайте любимые фильмы, игры, сериалы, книги и музыку.