img image001 image001 image001 image001 image001 image001 image001 image001 image001 image001 image001 image001 image001 image001 image001

Planets Sun Sun Sun
Статистика раздачи
Автор: Снежана | Размер: 5.25 ГБ | Добавлен: 25 июл 2013
Раздают: 3    Качают: 2
Скачать торрент
Скачать торрент
Описание торрента

СообщениеДобавлено: 25 июл 2013 

[imgright]http://i52.fastpic.ru/big/2013/0303/b4/836d76a8a50bbda9daa72041ced8d5b4.png" style="float:left;[/imgright]    Анатомия Грей / Grey's Anatomy
                    Сезон 9  Серии 01-21 (24)
Страна: США
Жанр: драма, мелодрама
Продолжительность: ~ 43 мин. серия
Количество серий в сезоне: 24 (ожидаемое)
Перевод:  СУБТИТРЫ
Субтитры: русские (notabenoid)
Режиссёр: Роб Корн (Rob Corn) и другие.
Создатель (сценарист): Шонда Раймс (Shonda Rhimes)
В ролях: Эллен Помпео (Ellen Pompeo) /Д-р Мередит Грей/, Сандра О (Sandra Oh) /Д-р Кристина Янг/, Джастин Чэмберс (Justin Chambers) /Д-р Алекс Карев/, Чандра Уилсон (Chandra Wilson) /Д-р Миранда Бэйли/, Джеймс Пикенс мл. (James Pickens Jr.) /Д-р Ричард Вебер/, Патрик Дэмпси (Patrick Dempsey) /Д-р Дерек Шепард/, Сара Рамирез (Sara Ramirez) /Д-р Келли Торрес/, Эрик Дэйн (Eric Dane) /Д-р Марк Слоан/, Кевин Маккидд (Kevin McKidd) /Д-р Оуэн Хант/, Джессика Кэпшоу (Jessica Capshaw) /Д-р Аризона Робинс/, Сара Дрю (Sarah Drew) /Д-р Эйприл Кепнер/, Джесси Уильямс (Jesse Williams) /Д-р Джексон Эйвери/ и другие.






Страница сериала на сайте канала ABC | Страница сериала в Википедии


Сэмпл: http://multi-up.com/776177

Качество: HDTVRip-AVC
Формат: MP4
Видео кодек: AVC
Аудио кодек: AAC
Видео: 720x404 (16:9), 23.976 fps, ~682 kbps avg, 0.098 bit/pixel
Аудио: AAC 48 kHz, 2 ch, 123 kbps
General
Complete name : C:SerialGreys.Anatomy.S09Greys.Anatomy.S09E01.HDTV.x264-LOL.mp4
Format : MPEG-4
Format profile : Base Media
Codec ID : isom
File size : 246 MiB
Duration : 42mn 35s
Overall bit rate : 809 Kbps
Encoded date : UTC 2012-09-26 19:10:14
Tagged date : UTC 2012-09-26 19:10:14

Video
ID : 1
Format : AVC
Format/Info : Advanced Video Codec
Format profile : High@L3.1
Format settings, CABAC : Yes
Format settings, ReFrames : 5 frames
Codec ID : avc1
Codec ID/Info : Advanced Video Coding
Duration : 42mn 35s
Bit rate mode : Variable
Bit rate : 682 Kbps
Maximum bit rate : 1 962 Kbps
Width : 720 pixels
Height : 404 pixels
Display aspect ratio : 16:9
Frame rate mode : Constant
Frame rate : 23.976 fps
Color space : YUV
Chroma subsampling : 4:2:0
Bit depth : 8 bits
Scan type : Progressive
Bits/(Pixel*Frame) : 0.098
Stream size : 208 MiB (84%)
Writing library : x264 core 128 r2216 198a7ea
Encoding settings : cabac=1 / ref=5 / deblock=1:2:2 / analyse=0x3:0x133 / me=umh / subme=9 / psy=1 / psy_rd=1.00:0.00 / mixed_ref=1 / me_range=16 / chroma_me=1 / trellis=2 / 8x8dct=1 / cqm=0 / deadzone=21,11 / fast_pskip=1 / chroma_qp_offset=-2 / threads=20 / lookahead_threads=3 / sliced_threads=0 / nr=0 / decimate=1 / interlaced=0 / bluray_compat=0 / constrained_intra=0 / bframes=3 / b_pyramid=2 / b_adapt=2 / b_bias=0 / direct=3 / weightb=1 / open_gop=0 / weightp=2 / keyint=250 / keyint_min=23 / scenecut=40 / intra_refresh=0 / rc_lookahead=60 / rc=crf / mbtree=1 / crf=19.0 / qcomp=0.60 / qpmin=0 / qpmax=69 / qpstep=4 / ip_ratio=1.40 / aq=1:1.00
Encoded date : UTC 2012-09-27 17:14:52
Tagged date : UTC 2012-09-26 19:10:19
Matrix coefficients : BT.709-5, BT.1361, IEC 61966-2-4 709, SMPTE RP177

Audio
ID : 2
Format : AAC
Format/Info : Advanced Audio Codec
Format profile : LC
Codec ID : 40
Duration : 42mn 35s
Bit rate mode : Variable
Bit rate : 123 Kbps
Maximum bit rate : 150 Kbps
Channel(s) : 2 channels
Channel positions : Front: L R
Sampling rate : 48.0 KHz
Compression mode : Lossy
Stream size : 37.4 MiB (15%)
Encoded date : UTC 2012-09-26 19:10:17
Tagged date : UTC 2012-09-26 19:10:19


Внимание! Раздача ведётся путём добавления новых серий; при каждом добавлении создаётся новый торрент. Чтобы начать докачку новой серии, пользователям необходимо сделать следующее:
(1) остановить скачивание,
(2) удалить старый торрент у себя из клиента (старые серии удалять не надо),
(3) скачать новый торрент и запустить его у себя в клиенте вместо старого, при этом указать клиенту путь в старую папку куда и должно происходить скачивание новых серий.
Ваш клиент при этом должен произвести хеширование (проверку) старой папки (если не производит сам - помогите ему сделать это), и будет докачивать только те серии которых у вас ещё нет. Старые серии при этом не удаляются, а продолжают раздаваться!
Eсли вы уже удалили старые серии, то предотвратить повторную закачку старых серий можно, отжав галочку в соответствующих местах при запуске нового торрента. По возможности, желательно не удалять старые серии как можно дольше чтобы релизёр не столько продолжал раздавать старые серии, а смог сконцентрироваться на новых.

Добавлена 21-я серия, перезалейте торррент.



   Похожие торренты   Торрент   Размер 
В этой теме нет новых непрочитанных сообщений. Анатомия страсти / Анатомия Грей / Grey's Anatomy [09x01-20] (2012) WEB-DLRip | FOX Life

0 | 4

9.78 ГБ

В этой теме нет новых непрочитанных сообщений. Анатомия страсти / Анатомия Грей / Grey's Anatomy [09x01-12] (2012) WEB-DLRip | Кубик в Кубе

2 | 2

5.29 ГБ

В этой теме нет новых непрочитанных сообщений. Анатомия страсти / Анатомия Грей / Grey's Anatomy [09x01-20] (2012) WEB-DLRip 720p | FOX Life

0 | 2

28.24 ГБ

В этой теме нет новых непрочитанных сообщений. Анатомия страсти / Анатомия Грей / Grey's Anatomy [09x01-10] (2012) WEB-DLRip | Кубик в Кубе

2 | 2

8.37 ГБ

В этой теме нет новых непрочитанных сообщений. Анатомия страсти / Анатомия Грей / Grey's Anatomy [09x01-10] (2012) WEB-DLRip 1080i | Кубик в Кубе

0 | 2

18.06 ГБ

В этой теме нет новых непрочитанных сообщений. Анатомия страсти / Анатомия Грей / Grey's Anatomy [09x01-10] (2012) WEB-DLRip 720p | Кубик в Кубе

0 | 3

14.77 ГБ

В этой теме нет новых непрочитанных сообщений. Анатомия страсти / Анатомия Грей / Grey's Anatomy [S09] (2012) HDTVRip | Sub

12 | 5

8.2 ГБ




Вы не можете начинать темы
Вы не можете отвечать на сообщения
Вы не можете редактировать свои сообщения
Вы не можете удалять свои сообщения
Вы не можете добавлять вложения

Перейти:  
Для Мосгорсуда, Роскомнадзора и рекламодателей: mosgorsud-torrent[собачка]yandex.ru
 Вход
ppkBB3cker v.2 © 2008-2014 @ PPK
[ Time : 0.052s | 14 Queries | GZIP : On ]

Торрент трекер RUTOR.IN, Не можете зайти на rutor.org? Какой новый адрес рутор? Какое зеркало рутор? Не работает rutor.org и зеркала? Тогда наш торрент специально для вас. Rutor.in неофициальное зеркало rutor. В случае если у Вас заблокирован rutor или вдруг Вы не можете на него зайти, то Вы без труда сможете скачать бесплатно и без рекламы последние новинки кино, игр, сериалов и прочего у нас, на Rutor.in. Не нужно использовать прокси, чтобы зайти на рутор, достаточно воспользоваться нашим ресурсом. Все новые фильмы, игры, сериалы, книги и музыка за 2013 и 2014 годы через торрент бесплатно. Скачивайте фильмы в хорошем качестве, игры для пк, xbox, playstation без регистрации. У нас вы найдете новые Зарубежные сериалы и Русские сериалы 2013, 2014, 2015 годов. Оставайтесь с нами, качайте любимые фильмы, игры, сериалы, книги и музыку.