img image001 image001 image001 image001 image001 image001 image001 image001 image001 image001 image001 image001 image001 image001 image001

Planets Sun Sun Sun
Статистика раздачи
Автор: Снежана | Размер: 4.51 ГБ | Добавлен: 25 июл 2013
Раздают: 4    Качают: 4
Скачать торрент
Скачать торрент
Описание торрента

СообщениеДобавлено: 25 июл 2013 

Хранилище 13 / Warehouse 13

Год выпуска: 2012
Страна: США, Syfy
Жанр: Фантастика, драма, мистика.
Продолжительность: ~00:43:00
Перевод: субтитры
Русские субтитры: есть (Notabenoid)
Режиссёр: Джейс Александр / Jace Alexander

В ролях: Эдди МакКлинток (Pete Lattimer), Джоэнн Келли (Myka Bering), Сол Рубинек (Artie Nielsen), Дженелл Уильямс (Leena), Саймон Рейнольдс (Daniel Dickenson), Эллисон Скальотти (Claudia Donovan), Си Си Эйч Паундер (Mrs. Irene Frederic), Роджер Рис (James MacPherson), Jung-Yul Kim (Mrs. Frederic's Bodyguard), Сузанна Хартер (Justine Pounder), Гэбриел Хоган (Sam Martino), Тайлер Хайнс (Joshua Donovan)

Описание: После спасения жизни президента, двух агентов Секретной службы переводят на секретный объект в штате Южная Дакота. Там содержатся сверхъестественные вещи, которые правительство США собирало в течение столетий. Их новое назначение - вернуть часть пропавших вещей и расследовать сообщения о новых.



Переводчики: Sun_eyed_girl, Lerys, Grenada, geragod, Tatyana_, jakoma, Xtine, kiberline

Качество: HDTVRip
Формат: AVI
Видео кодек: XviD
Аудио кодек: MP3
Видео: 624x352 (1.77:1), 23.976 fps, XviD build 50 ~1161 kbps avg, 0.22 bit/pixel
Аудио: 48 kHz, MPEG Layer 3, 2 ch, ~128.00 kbps avg
General
Complete name : C:Documents and SettingsРабочий столFILMСЕРИАЛЫWarehouseWarehouse.13.Season.4Warehouse.13.S04E01.avi
Format : AVI
Format/Info : Audio Video Interleave
File size : 401 MiB
Duration : 43mn 11s
Overall bit rate : 1 299 Kbps
Writing application : VirtualDubMod 1.5.10.3 | www.virtualdub-fr.org || (build 2550/release)
Writing library : VirtualDubMod build 2550/release

Video
ID : 0
Format : MPEG-4 Visual
Format profile : Advanced Simple@L5
Format settings, BVOP : 1
Format settings, QPel : No
Format settings, GMC : No warppoints
Format settings, Matrix : Default (MPEG)
Codec ID : XVID
Codec ID/Hint : XviD
Duration : 43mn 11s
Bit rate : 1 161 Kbps
Width : 624 pixels
Height : 352 pixels
Display aspect ratio : 16:9
Frame rate : 23.976 fps
Color space : YUV
Chroma subsampling : 4:2:0
Bit depth : 8 bits
Scan type : Progressive
Compression mode : Lossy
Bits/(Pixel*Frame) : 0.221
Stream size : 359 MiB (89%)
Writing library : XviD 1.2.1 (UTC 2008-12-04)

Audio
ID : 1
Format : MPEG Audio
Format version : Version 1
Format profile : Layer 3
Codec ID : 55
Codec ID/Hint : MP3
Duration : 43mn 11s
Bit rate mode : Constant
Bit rate : 128 Kbps
Channel(s) : 2 channels
Sampling rate : 48.0 KHz
Compression mode : Lossy
Stream size : 39.5 MiB (10%)
Alignment : Aligned on interleaves
Interleave, duration : 42 ms (1.00 video frame)
Interleave, preload duration : 504 ms
Writing library : LAME3.99
Encoding settings : -m s -V 4 -q 2 -lowpass 17 -b 128


Внимание! Раздача ведётся путём добавления новых серий; при каждом добавлении создаётся новый торрент. Чтобы начать докачку новой серии, пользователям необходимо сделать следующее:
(1) остановить скачивание,
(2) удалить старый торрент у себя из клиента (старые серии удалять не надо),
(3) скачать новый торрент и запустить его у себя в клиенте вместо старого, при этом указать клиенту путь в старую папку куда и должно происходить скачивание новых серий.
Ваш клиент при этом должен произвести хеширование (проверку) старой папки (если не производит сам - помогите ему сделать это), и будет докачивать только те серии которых у вас ещё нет. Старые серии при этом не удаляются, а продолжают раздаваться!
Eсли вы уже удалили старые серии, то предотвратить повторную закачку старых серий можно, отжав галочку в соответствующих местах при запуске нового торрента. По возможности, желательно не удалять старые серии как можно дольше чтобы релизёр не столько продолжал раздавать старые серии, а смог сконцентрироваться на новых.



   Похожие торренты   Торрент   Размер 
В этой теме нет новых непрочитанных сообщений. Хранилище 13 / Warehouse 13 [04x01-10] (2012) WEB-DLRip 1080p | LostFilm

8 | 5

17.95 ГБ

В этой теме нет новых непрочитанных сообщений. Хранилище 13 / Warehouse 13 [S04] (2012-2013) WEB-DLRip, HDTVRip | LostFilm

94 | 89

9.01 ГБ

В этой теме нет новых непрочитанных сообщений. Хранилище 13 / Warehouse 13 [S01-04] (2009-2013) HDTVRip, WEB-DLRip | LostFilm | P

169 | 132

24.47 ГБ

В этой теме нет новых непрочитанных сообщений. Хранилище 13 / Warehouse 13 [S04] (2012-2013) WEB-DLRip 720p, HDTVRip 720p | LostFilm

13 | 19

29.31 ГБ

В этой теме нет новых непрочитанных сообщений. Хранилище 13 / Warehouse 13 [S01-04] (2009-2013) WEB-DLRip | LostFilm

7 | 10

24.65 ГБ

В этой теме нет новых непрочитанных сообщений. Хранилище 13 / Warehouse 13 [S01-05] (2009-2014) HDTVRip, WEB-DLRip от Generalfilm | LostFilm

156 | 114

39.38 ГБ

В этой теме нет новых непрочитанных сообщений. Хранилище 13 / Warehouse 13 [S03] (2010) WEB-DLRip | КПК | LostFilm

17 | 8

3.05 ГБ




Вы не можете начинать темы
Вы не можете отвечать на сообщения
Вы не можете редактировать свои сообщения
Вы не можете удалять свои сообщения
Вы не можете добавлять вложения

Перейти:  
Для Мосгорсуда, Роскомнадзора и рекламодателей: mosgorsud-torrent[собачка]yandex.ru
 Вход
ppkBB3cker v.2 © 2008-2014 @ PPK
[ Time : 0.058s | 15 Queries | GZIP : Off ]

cron