img image001 image001 image001 image001 image001 image001 image001 image001 image001 image001 image001 image001 image001 image001 image001

Planets Sun Sun Sun
Статистика раздачи
Автор: Снежана | Размер: 5.36 ГБ | Добавлен: 26 июл 2013
Раздают: 0    Качают: 3
Скачать торрент
Скачать торрент
Описание торрента

СообщениеДобавлено: 26 июл 2013 

#77

Информация о фильме
Название: Ганнибал
Оригинальное название: Hannibal
Год выхода: 2013
Жанр: детектив, криминал, драма
Режиссер: Гильермо Наварро, Майкл Раймер, Дэвид Слэйд
В ролях: Мадс Миккельсен, Хью Дэнси, Каролин Давернас, Лара Жан Чоростецки, Аарон Абрамс, Лоренс Фишбёрн, Эттьенн Парк, Скотт Томпсон, Торианна Ли, Демор Барнс

О фильме:
Уилл Грэхэм - одаренный профайлер, который вместе с ФБР разыскивает серийного убийцу. Уникальный способ мышления Грэма дает ему удивительную способность глубоко проникаться чувствами другого человека, даже психопата. Он может понять, что ими движет. Но когда ум преследуемого убийцы оказывается слишком сложным, он прибегает к помощи доктора Лектера, одного из ведущих психиатрических умов в стране.



Выпущено: США
Продолжительность: 1-3,5-7 x ~00:43:00, 4 x ~00:22:00
Перевод: Профессиональный (многоголосый, закадровый) - Jaskier

Рип и синхронизация звука: hintoz
Озвучка: Денис Строев, Сергей Пономарёв, Михаил Кшиштовский и Рина Гришина
Перевод: Doctor_Joker и Martina G

Озвучено по заказу
При поддержке игры "Карос"

Файл
Качество: 1-3,5-7: WEB-DLRip-AVC (исходник WEB-DL 1080p)
Качество: 4: WEBRip-AVC
Формат: MKV
Видео кодек: x264
Аудио кодек: AC3
Видео: 1059x592, 23.976 fps, 1999 kbps, 0.133 bit/pixel
Аудио #1: 16 bit, 48 kHz, 384 kbps, 5.1 |MVO|
Аудио #2: 16 bit, 48 kHz, 384 kbps, 5.1 |Original|

01. Apéritif
02. Amuse-Bouche
03. Potage
04. Œuf
05. Coquilles
06. Entrée
07. Sorbet
General
Unique ID : 223722992946443669241876136106669326339 (0xA84F7B2BC073F6D2A162837FED2F4003)
Complete name : F:VideoUploadTV ShowsHannibal.s01.WEB-DLRip-AVC.JaskierHannibal.s01e01.WEB-DLRip.AVC.MVO.Jaskier-hintoz.mkv
Format : Matroska
Format version : Version 4 / Version 2
File size : 851 MiB
Duration : 42mn 57s
Overall bit rate : 2 769 Kbps
Movie name : Hannibal s01e01 Rip by hintoz
Encoded date : UTC 2013-04-21 23:37:21
Writing application : mkvmerge v6.1.0 ('Old Devil') built on Mar 2 2013 14:32:37
Writing library : libebml v1.3.0 + libmatroska v1.4.0

Video
ID : 1
Format : AVC
Format/Info : Advanced Video Codec
Format profile : High@L4.1
Format settings, CABAC : Yes
Format settings, ReFrames : 5 frames
Codec ID : V_MPEG4/ISO/AVC
Duration : 42mn 57s
Bit rate : 1 999 Kbps
Width : 1 056 pixels
Height : 592 pixels
Display aspect ratio : 16:9
Frame rate mode : Constant
Frame rate : 23.976 fps
Color space : YUV
Chroma subsampling : 4:2:0
Bit depth : 8 bits
Scan type : Progressive
Bits/(Pixel*Frame) : 0.133
Stream size : 598 MiB (70%)
Title : Hannibal s01e01 Rip by hintoz
Writing library : x264 core 130 r2273 b3065e6
Encoding settings : cabac=1 / ref=5 / deblock=1:0:0 / analyse=0x3:0x133 / me=umh / subme=10 / psy=1 / psy_rd=1.00:0.15 / mixed_ref=1 / me_range=32 / chroma_me=1 / trellis=2 / 8x8dct=1 / cqm=0 / deadzone=21,11 / fast_pskip=0 / chroma_qp_offset=-3 / threads=12 / lookahead_threads=1 / sliced_threads=0 / nr=0 / decimate=0 / interlaced=0 / bluray_compat=0 / constrained_intra=0 / bframes=4 / b_pyramid=2 / b_adapt=2 / b_bias=0 / direct=3 / weightb=1 / open_gop=0 / weightp=2 / keyint=240 / keyint_min=23 / scenecut=40 / intra_refresh=0 / rc_lookahead=40 / rc=2pass / mbtree=1 / bitrate=1999 / ratetol=1.0 / qcomp=0.60 / qpmin=0 / qpmax=69 / qpstep=4 / cplxblur=20.0 / qblur=0.5 / ip_ratio=1.40 / aq=1:1.00
Language : English
Default : Yes
Forced : No

Audio #1
ID : 2
Format : AC-3
Format/Info : Audio Coding 3
Mode extension : CM (complete main)
Format settings, Endianness : Big
Codec ID : A_AC3
Duration : 42mn 57s
Bit rate mode : Constant
Bit rate : 384 Kbps
Channel(s) : 6 channels
Channel positions : Front: L C R, Side: L R, LFE
Sampling rate : 48.0 KHz
Bit depth : 16 bits
Compression mode : Lossy
Stream size : 118 MiB (14%)
Title : MVO Jaskier
Language : Russian
Default : Yes
Forced : No

Audio #2
ID : 3
Format : AC-3
Format/Info : Audio Coding 3
Mode extension : CM (complete main)
Format settings, Endianness : Big
Codec ID : A_AC3
Duration : 42mn 57s
Bit rate mode : Constant
Bit rate : 384 Kbps
Channel(s) : 6 channels
Channel positions : Front: L C R, Side: L R, LFE
Sampling rate : 48.0 KHz
Bit depth : 16 bits
Compression mode : Lossy
Stream size : 118 MiB (14%)
Title : Original
Language : English
Default : No
Forced : No

Раздача ведётся путём добавления новых серий; при каждом добавлении создаётся новый торрент. Чтобы начать докачку новой серии, пользователям необходимо сделать следующее:
(1) остановить скачивание,
(2) удалить старый торрент у себя из клиента (старые серии удалять не надо),
(3) скачать новый торрент и запустить его у себя в клиенте вместо старого, при этом указать клиенту путь в старую папку куда и должно происходить скачивание новых серий.

Ваш клиент при этом должен произвести хеширование (проверку) старой папки (если не производит сам - помогите ему сделать это), и будет докачивать только те серии которых у вас ещё нет. Старые серии при этом не удаляются, а продолжают раздаваться!

Eсли вы уже удалили старые серии, то предотвратить повторную закачку старых серий можно, отжав галочку в соответствующих местах при запуске нового торрента. По возможности, желательно не удалять старые серии как можно дольше чтобы релизёр не столько продолжал раздавать старые серии, а смог сконцентрироваться на новых.

11.05.2013. Раздача обновлена. Добавлена 7 серия.



   Похожие торренты   Торрент   Размер 
В этой теме нет новых непрочитанных сообщений. Ганнибал / Hannibal [01х01-09 из 13] (2013) HDTVRip, WEBRip 720p | Jaskier

1 | 4

8.48 ГБ

В этой теме нет новых непрочитанных сообщений. Ганнибал / Hannibal [03x01 из 13] (2015) WEBRip 720p | Jaskier

189 | 4

618.61 МБ

В этой теме нет новых непрочитанных сообщений. Ганнибал / Hannibal [S01] (2013) WEB-DLRip-AVC, WEBRip-AVC | BaibaKo

36 | 21

7.48 ГБ

В этой теме нет новых непрочитанных сообщений. Ганнибал / Hannibal [S01] (2013) WEB-DLRip, WEBRip | BaibaKo

427 | 109

7.72 ГБ

В этой теме нет новых непрочитанных сообщений. Ганнибал / Hannibal [01x01-12 из 13] (2013) WEB-DLRip-AVC 1080p l Sony Sci Fi

1 | 4

20.06 ГБ

В этой теме нет новых непрочитанных сообщений. Ганнибал / Hannibal [03x01 из 13] (2015) WEB-DLRip-AVC | Jaskier

60 | 1

259.08 МБ

В этой теме нет новых непрочитанных сообщений. Ганнибал / Hannibal [S01] (2013) HDTVRip 720p | Jaskier

143 | 57

11.39 ГБ




Вы не можете начинать темы
Вы не можете отвечать на сообщения
Вы не можете редактировать свои сообщения
Вы не можете удалять свои сообщения
Вы не можете добавлять вложения

Перейти:  
Для Мосгорсуда, Роскомнадзора и рекламодателей: mosgorsud-torrent[собачка]yandex.ru
 Вход
ppkBB3cker v.2 © 2008-2014 @ PPK
[ Time : 0.069s | 14 Queries | GZIP : Off ]

Торрент трекер RUTOR.IN, Не можете зайти на rutor.org? Какой новый адрес рутор? Какое зеркало рутор? Не работает rutor.org и зеркала? Тогда наш торрент специально для вас. Rutor.in неофициальное зеркало rutor. В случае если у Вас заблокирован rutor или вдруг Вы не можете на него зайти, то Вы без труда сможете скачать бесплатно и без рекламы последние новинки кино, игр, сериалов и прочего у нас, на Rutor.in. Не нужно использовать прокси, чтобы зайти на рутор, достаточно воспользоваться нашим ресурсом. Все новые фильмы, игры, сериалы, книги и музыка за 2013 и 2014 годы через торрент бесплатно. Скачивайте фильмы в хорошем качестве, игры для пк, xbox, playstation без регистрации. У нас вы найдете новые Зарубежные сериалы и Русские сериалы 2013, 2014, 2015 годов. Оставайтесь с нами, качайте любимые фильмы, игры, сериалы, книги и музыку.