img image001 image001 image001 image001 image001 image001 image001 image001 image001 image001 image001 image001 image001 image001 image001

Planets Sun Sun Sun
Статистика раздачи
Автор: Снежана | Размер: 7.23 ГБ | Добавлен: 26 июл 2013
Раздают: 32    Качают: 10
Скачать торрент
Скачать торрент
Описание торрента

СообщениеДобавлено: 26 июл 2013 

#77

Год выпуска: 2013
Производство: Россия, "МАРСМЕДИЯ"
Жанр: Военный
Продолжительность:4х ~00:45:00
Субтитры: Нет

Режиссёр: Константин Статский

В ролях: Александр Устюгов, Анатолий Гущин, Тимофей Трибунцев, Азамат Нигманов, Поля Полякова, Евгений Антропов, Александр Ефремов (II), Надежда Анципович, Сергей Ефремов (II), Антон Жуков, Виталий Котовицкий, Михаил Клименко, Юрий Вутто, Денис Паршин, Игорь Денисов, Вероника Пляшкевич

Описание: Ремейк фильма "Отряд особого назначения". Великая Отечественная война. Во время отступления частей Красной Армии, шла переброска секретного оружия – "гвардейских миномётов БМ-13", впоследствии названных "Катюшами". В ходе операции одна машина затонула. Чтобы не допустить ее попадания в руки врага, срочно формируется и забрасывается за линию фронта отряд из нескольких мастеров спорта под командованием Александра Ермакова. Их цель – найти и уничтожить орудие.

Качество: HDTVRip 720p
Формат: MKV
Видео кодек: AVC
Аудио кодек: MP3
Видео: AVC, ~ 5000 Кбит/с, 1280х720, 25.000 fps, 0.230 bit/pixel
Аудио: AC3, 2 ch, 192 Кбит/с, 48.0 KHz

Релиз: GeneralFilm


Семпл
General
Complete name : E:DownloadsPrivet.ot.Katjushi.720p1.mkv
Format : Matroska
File size : 1.78 GiB
Duration : 46mn 15s
Overall bit rate : 5 498 Kbps
Encoded date : UTC 2013-05-09 19:47:05
Writing application : mkvmerge v5.8.0 ('No Sleep / Pillow') built on Sep 2 2012 15:37:04
Writing library : libebml v1.2.3 + libmatroska v1.3.0

Video
ID : 1
Format : AVC
Format/Info : Advanced Video Codec
Format profile : High@L4.1
Format settings, CABAC : Yes
Format settings, ReFrames : 6 frames
Format settings, GOP : M=1, N=22
Codec ID : V_MPEG4/ISO/AVC
Duration : 46mn 15s
Bit rate : 5 300 Kbps
Width : 1 280 pixels
Height : 720 pixels
Display aspect ratio : 16:9
Frame rate : 25.000 fps
Color space : YUV
Chroma subsampling : 4:2:0
Bit depth : 8 bits
Scan type : Progressive
Bits/(Pixel*Frame) : 0.230
Stream size : 1.68 GiB (95%)
Writing library : x264 core 125 r2208 d9d2288
Encoding settings : cabac=1 / ref=6 / deblock=1:-1:-1 / analyse=0x3:0x113 / me=umh / subme=10 / psy=1 / psy_rd=0.00:0.10 / mixed_ref=1 / me_range=32 / chroma_me=1 / trellis=2 / 8x8dct=1 / cqm=0 / deadzone=21,11 / fast_pskip=0 / chroma_qp_offset=-1 / threads=12 / lookahead_threads=2 / sliced_threads=0 / nr=0 / decimate=1 / interlaced=0 / bluray_compat=0 / constrained_intra=0 / bframes=6 / b_pyramid=2 / b_adapt=1 / b_bias=0 / direct=0 / weightb=1 / open_gop=0 / weightp=2 / keyint=250 / keyint_min=25 / scenecut=40 / intra_refresh=0 / rc_lookahead=40 / rc=abr / mbtree=1 / bitrate=5300 / ratetol=1.0 / qcomp=0.60 / qpmin=0 / qpmax=69 / qpstep=4 / ip_ratio=1.40 / aq=1:1.00

Audio
ID : 2
Format : AC-3
Format/Info : Audio Coding 3
Mode extension : CM (complete main)
Codec ID : A_AC3
Duration : 46mn 15s
Bit rate mode : Constant
Bit rate : 192 Kbps
Channel(s) : 2 channels
Channel positions : Front: L R
Sampling rate : 48.0 KHz
Bit depth : 16 bits
Stream size : 63.5 MiB (3%)




   Похожие торренты   Торрент   Размер 
В этой теме нет новых непрочитанных сообщений. Привет от Катюши [01-04 из 04] (2013) HDTVRip-AVC от Files-x

31 | 3

2.93 ГБ

В этой теме нет новых непрочитанных сообщений. Привет от «Катюши» [01-04 из 04] (2013) HDTVRip от Files-x

455 | 25

2.15 ГБ

В этой теме нет новых непрочитанных сообщений. Привет от Катюши [01-04 из 04] (2013) DVDRip от Generalfilm | КПК

26 | 5

768.05 МБ

В этой теме нет новых непрочитанных сообщений. Привет от Катюши [01-04 из 04] (2013) DVDRip от Youtracker | лицензия

118 | 11

3.29 ГБ

В этой теме нет новых непрочитанных сообщений. Привет от Катюши [01-04 из 04] (2013) DVDRip-AVC от Youtracker | лицензия

21 | 9

3.29 ГБ

В этой теме нет новых непрочитанных сообщений. Привет от Катюши [01-04 из 04] (2013) DVD9 R5 от Youtracker | лицензия

4 | 2

7.7 ГБ

В этой теме нет новых непрочитанных сообщений. Привет от Катюши [01-04 из 04] (2013) HDTV 1080i от MediaClub

5 | 4

13.18 ГБ




Вы не можете начинать темы
Вы не можете отвечать на сообщения
Вы не можете редактировать свои сообщения
Вы не можете удалять свои сообщения
Вы не можете добавлять вложения

Перейти:  
Для Мосгорсуда, Роскомнадзора и рекламодателей: mosgorsud-torrent[собачка]yandex.ru
 Вход
ppkBB3cker v.2 © 2008-2014 @ PPK
[ Time : 0.059s | 14 Queries | GZIP : Off ]

Торрент трекер RUTOR.IN, Не можете зайти на rutor.org? Какой новый адрес рутор? Какое зеркало рутор? Не работает rutor.org и зеркала? Тогда наш торрент специально для вас. Rutor.in неофициальное зеркало rutor. В случае если у Вас заблокирован rutor или вдруг Вы не можете на него зайти, то Вы без труда сможете скачать бесплатно и без рекламы последние новинки кино, игр, сериалов и прочего у нас, на Rutor.in. Не нужно использовать прокси, чтобы зайти на рутор, достаточно воспользоваться нашим ресурсом. Все новые фильмы, игры, сериалы, книги и музыка за 2013 и 2014 годы через торрент бесплатно. Скачивайте фильмы в хорошем качестве, игры для пк, xbox, playstation без регистрации. У нас вы найдете новые Зарубежные сериалы и Русские сериалы 2013, 2014, 2015 годов. Оставайтесь с нами, качайте любимые фильмы, игры, сериалы, книги и музыку.