img image001 image001 image001 image001 image001 image001 image001 image001 image001 image001 image001 image001 image001 image001 image001

Planets Sun Sun Sun
Статистика раздачи
Автор: Снежана | Размер: 21.82 ГБ | Добавлен: 26 июл 2013
Раздают: 73    Качают: 77
Скачать торрент
Скачать торрент
Описание торрента

СообщениеДобавлено: 26 июл 2013 

#77

Информация о фильме
Оригинальное название: Карпов
Год выпуска: 2012
Жанр: Детектив, криминал, драма
Режиссер: Игорь Ромащенко, Иван Щёголев, Гюзель Киреева
В ролях: Владислав Котлярский, Степан Рожнов, Юлия Майборода, Максим Щеголев, Николай Козак, Анна Михайловская, Дмитрий Блажко, Дмитрий Мазуров, Сергей Карленков, Константин Столяров, Михаил Скачков, Юлия Селиванова, Артем Барсуков, Александр Сергеев, Виктор Мютников, Константин Шелягин, Виктория Тарасова, Владислав Шкляев, Григорий Анашкин, Юлия Гусак, Арсений Перов, Андрей Сорока, Юрий Пономаренко, Андрей Перунов, Федор Румянцев, Анна Зверева, Андрей Березкин, Елена Калабина, Сергей Ланбамин, Ульяна Ворожейкина, Алексей Захаров, Максим Громов, Александр Шелудько, Александр Синюков, Анна Ровинская, Михаил Шкамаридин, Евгений Сафронов

О фильме: Телесериал «Карпов» расскажет о дальнейшей судьбе бывшего подполковника милиции Стаса Карпова. Освободившись после принудительного лечения, Карпов оказывается «у разбитого корыта». Не осталось ничего из того, чего он так долго добивался: ни денег, ни положения, ни власти. Бывшему менту выписан волчий билет, в полицию он не попадет даже на самую мелкую должность. Пытаясь хоть как-то прокормить себя, Карпов устраивается работать охранником на склад. Он смотрит на мир трезвыми глазами, не задурманенными властью. Однажды он видит объявление о вознаграждении за розыск преступника и понимает, что помнит того по старым делам, и может разыскать его...

01 серия: Здесь темно и тихо
02 серия: Свидетель
03 серия: Со дна
04 серия: Куш
05 серия: Проверка на прочность
06 серия: Огонь
07 серия: Часть той силы
08 серия: Сети
09 серия: Хобот
10 серия: Крючок
11 серия: Никому не нужный псих
12 серия: Сон
13 серия: Гости из прошлого
14 серия: Переворот
15 серия: Схватка
16 серия: Для друга
17 серия: Слишком живой для мертвеца
18 серия: Нежить
19 серия: Чужая земля
20 серия: Признание
21 серия: Слишком много вопросов
22 серия: Киллер
23 серия: Входной билет
24 серия: Грязные игры
25 серия: Группа смерти
26 серия: Колпак
27 серия: Бойня
28 серия: Снежная королева
29 серия: Другие
30 серия: Звериная стая
31 серия: Зомби
32 серия: Тьма или Света


Страна: Россия
Студия: Телекомпания "Dixi Медиа", НТВ
Продолжительность: 32 х ~ 00:45:00

Файл
Качество: DVDRip (AVC)
Видео: MPEG-4 AVC, ~ 1700 Кбит/c, 720x576@1024x576, 25.000 кадр/c
Звук: Русский (АС3, 6 ch, 448 Кбит/c)

Семпл




Общее
Уникальный идентификатор : 173613177931272685463983169876553768864 (0x829CAE8B37F3ED0F9AA36ADEA5D61FA0)
Полное имя : D:Mои раздачиKarpov.2012.DVDRip.(AVC)-MediaClub22.mkv
Формат : Matroska
Версия формата : Version 2
Размер файла : 698 Мбайт
Продолжительность : 45 м.
Общий поток : 2154 Кбит/сек
Дата кодирования : UTC 2013-05-14 08:20:02
Программа кодирования : mkvmerge v6.1.0 ('Old Devil') built on Mar 4 2013 09:10:42
Библиотека кодирования : libebml v1.3.0 + libmatroska v1.4.0

Видео
Идентификатор : 1
Формат : AVC
Формат/Информация : Advanced Video Codec
Профиль формата : High@L4.1
Параметр CABAC формата : Да
Параметр ReFrames формата : 8 кадров
Идентификатор кодека : V_MPEG4/ISO/AVC
Продолжительность : 45 м.
Битрейт : 1705 Кбит/сек
Ширина : 720 пикселей
Высота : 576 пикселей
Соотношение сторон : 16:9
Режим частоты кадров : Постоянный
Частота кадров : 25,000 кадров/сек
Стандарт вещания : PAL
Цветовое пространство : YUV
Субдискретизация насыщенности : 4:2:0
Битовая глубина : 8 бит
Тип развёртки : Прогрессивная
Бит/(Пиксели*Кадры) : 0.164
Размер потока : 539 Мбайт (77%)
Библиотека кодирования : x264 core 130 r2273 b3065e6
Настройки программы : cabac=1 / ref=8 / deblock=1:-2:-2 / analyse=0x3:0x133 / me=umh / subme=10 / psy=1 / psy_rd=1.00:0.00 / mixed_ref=1 / me_range=32 / chroma_me=1 / trellis=2 / 8x8dct=1 / cqm=0 / deadzone=21,11 / fast_pskip=0 / chroma_qp_offset=-2 / threads=12 / lookahead_threads=1 / sliced_threads=0 / nr=0 / decimate=0 / interlaced=0 / bluray_compat=0 / constrained_intra=0 / bframes=6 / b_pyramid=2 / b_adapt=2 / b_bias=0 / direct=3 / weightb=1 / open_gop=0 / weightp=2 / keyint=250 / keyint_min=25 / scenecut=40 / intra_refresh=0 / rc=2pass / mbtree=0 / bitrate=1705 / ratetol=1.0 / qcomp=0.60 / qpmin=0 / qpmax=69 / qpstep=4 / cplxblur=20.0 / qblur=0.5 / ip_ratio=1.40 / pb_ratio=1.30 / aq=1:0.80
Default : Да
Forced : Нет

Аудио
Идентификатор : 2
Формат : AC-3
Формат/Информация : Audio Coding 3
Расширение режима : CM (complete main)
Параметр Endianness формата : Big
Идентификатор кодека : A_AC3
Продолжительность : 45 м.
Вид битрейта : Постоянный
Битрейт : 448 Кбит/сек
Каналы : 6 каналов
Расположение каналов : Front: L C R, Side: L R, LFE
Частота : 48,0 КГц
Битовая глубина : 16 бит
Метод сжатия : С потерями
Размер потока : 145 Мбайт (21%)
Default : Да
Forced : Нет

x264 [info]: frame I:568 Avg QP:14.73 size: 37289
x264 [info]: frame P:16389 Avg QP:17.17 size: 17206
x264 [info]: frame B:51020 Avg QP:19.01 size: 5415
x264 [info]: consecutive B-frames: 3.0% 3.7% 22.0% 8.2% 6.8% 55.3% 1.1%
x264 [info]: mb I I16..4: 8.2% 85.4% 6.4%
x264 [info]: mb P I16..4: 4.4% 26.1% 1.7% P16..4: 33.7% 18.3% 11.5% 0.3% 0.1% skip: 3.8%
x264 [info]: mb B I16..4: 0.6% 2.2% 0.1% B16..8: 37.3% 12.1% 2.7% direct: 9.3% skip:35.7% L0:37.5% L1:38.7% BI:23.8%
x264 [info]: 8x8 transform intra:80.2% inter:70.4%
x264 [info]: direct mvs spatial:98.2% temporal:1.8%
x264 [info]: coded y,uvDC,uvAC intra: 65.9% 57.9% 11.9% inter: 23.5% 22.7% 2.8%
x264 [info]: i16 v,h,dc,p: 43% 19% 13% 25%
x264 [info]: i8 v,h,dc,ddl,ddr,vr,hd,vl,hu: 27% 15% 27% 4% 4% 7% 4% 7% 6%
x264 [info]: i4 v,h,dc,ddl,ddr,vr,hd,vl,hu: 26% 11% 10% 6% 11% 14% 8% 8% 5%
x264 [info]: i8c dc,h,v,p: 41% 24% 26% 9%
x264 [info]: Weighted P-Frames: Y:7.4% UV:3.7%
x264 [info]: ref P L0: 53.2% 9.7% 18.1% 5.5% 4.7% 3.3% 2.9% 1.9% 0.7% 0.0%
x264 [info]: ref B L0: 84.6% 9.3% 2.9% 1.4% 1.0% 0.6% 0.3%
x264 [info]: ref B L1: 95.6% 4.4%
x264 [info]: kb/s:1704.77


Релиз от:



   Похожие торренты   Торрент   Размер 
В этой теме нет новых непрочитанных сообщений. Карпов [01-32 из 32] (2012) DVDRip

376 | 141

20.59 ГБ

В этой теме нет новых непрочитанных сообщений. Карпов [01-32 из 32] (2012) DVDRip от Generalfilm | КПК

98 | 36

5.67 ГБ

В этой теме нет новых непрочитанных сообщений. Карпов [03х01 из 32] (2014) SATRip от MediaClub

103 | 85

3.24 ГБ

В этой теме нет новых непрочитанных сообщений. Карпов [03х01 из 32] (2014) SATRip от MediaClub

210 | 119

4.31 ГБ

В этой теме нет новых непрочитанных сообщений. Карпов [03х01 из 32] (2014) SATRip от MediaClub

50 | 21

2.16 ГБ

В этой теме нет новых непрочитанных сообщений. Карпов [01-32] (2012) DVB

16 | 8

54.84 ГБ

В этой теме нет новых непрочитанных сообщений. Карпов [01-32] (2012) SATRip-AVC

594 | 52

11.12 ГБ




Вы не можете начинать темы
Вы не можете отвечать на сообщения
Вы не можете редактировать свои сообщения
Вы не можете удалять свои сообщения
Вы не можете добавлять вложения

Перейти:  
Для Мосгорсуда, Роскомнадзора и рекламодателей: mosgorsud-torrent[собачка]yandex.ru
 Вход
ppkBB3cker v.2 © 2008-2014 @ PPK
[ Time : 0.115s | 15 Queries | GZIP : Off ]

Торрент трекер RUTOR.IN, Не можете зайти на rutor.org? Какой новый адрес рутор? Какое зеркало рутор? Не работает rutor.org и зеркала? Тогда наш торрент специально для вас. Rutor.in неофициальное зеркало rutor. В случае если у Вас заблокирован rutor или вдруг Вы не можете на него зайти, то Вы без труда сможете скачать бесплатно и без рекламы последние новинки кино, игр, сериалов и прочего у нас, на Rutor.in. Не нужно использовать прокси, чтобы зайти на рутор, достаточно воспользоваться нашим ресурсом. Все новые фильмы, игры, сериалы, книги и музыка за 2013 и 2014 годы через торрент бесплатно. Скачивайте фильмы в хорошем качестве, игры для пк, xbox, playstation без регистрации. У нас вы найдете новые Зарубежные сериалы и Русские сериалы 2013, 2014, 2015 годов. Оставайтесь с нами, качайте любимые фильмы, игры, сериалы, книги и музыку.