img image001 image001 image001 image001 image001 image001 image001 image001 image001 image001 image001 image001 image001 image001 image001

Planets Sun Sun Sun
Статистика раздачи
Автор: Снежана | Размер: 7.48 ГБ | Добавлен: 25 июл 2013
Раздают: 0    Качают: 2
Скачать торрент
Скачать торрент
Описание торрента

СообщениеДобавлено: 25 июл 2013 

#77

Год выпуска: 2011
Дистрибьютор: «Новый Диск»
Производство: Централ Партнершип
Жанр: боевик, драма, военный
Продолжительность: 180 мин.
Субтитры: нет
Режиссёр: Владимир Котт
В ролях:
Алексей Кравченко, Екатерина Федулова, Александр Лымарев, Олег Демидов, Борис Невзоров, Сергей Беляев,
Андрей Денисов, Элен Касьяник, Евгений Штырбул, Сергей Давыдов
Описание:
Успех крупной военной операции под Минском зависит от того, удастся ли советской разведке добыть план секретной операции немцев под названием "Горгона". На это задание отправляется очень необычный отряд: все его бойцы, вместе с командиром, опытным разведчиком Федором Тишковым, до войны работали в минском цирке. Теперь они должны пробраться в немецкий штаб, расположенный в Минске неподалеку от цирка. И выкрасть секретный документ. С таким врагом немцам еще сталкиваться не доводилось.

Исходник: DVD9
Качество: DVD5
Формат: DVD-Video

Видео: PAL 16:9 (720x576) VBR Auto Letterboxed
Аудио: Russian (Dolby AC3, 2 ch) 224 Kbps

General
Complete name : D:Операция Горгона (4 серии из 4) 2хDVD52VIDEO_TSVTS_07_1.VOB
Format : MPEG-PS
File size : 1 024 MiB
Duration : 23mn 42s
Overall bit rate : 6 040 Kbps

Video
ID : 224 (0xE0)
Format : MPEG Video
Format version : Version 2
Format profile : Main@Main
Format settings, BVOP : Yes
Format settings, Matrix : Default
Format settings, GOP : M=3, N=12
Duration : 23mn 42s
Bit rate mode : Variable
Bit rate : 5 696 Kbps
Nominal bit rate : 7 500 Kbps
Width : 720 pixels
Height : 576 pixels
Display aspect ratio : 16:9
Frame rate : 25.000 fps
Standard : PAL
Color space : YUV
Chroma subsampling : 4:2:0
Bit depth : 8 bits
Scan type : Interlaced
Scan order : Top Field First
Bits/(Pixel*Frame) : 0.549
Stream size : 966 MiB (94%)

Audio
ID : 128 (0x80)
Format : AC-3
Format/Info : Audio Coding 3
Mode extension : CM (complete main)
Duration : 23mn 41s
Bit rate mode : Constant
Bit rate : 224 Kbps
Channel(s) : 2 channels
Channel positions : Front: L R
Sampling rate : 48.0 KHz
Bit depth : 16 bits
Stream size : 38.0 MiB (4%)

Menu



Size: 3.72 Gb ( 3 895 666 KBytes ) - DVD-5
Enabled regions: 1, 2, 3, 4, 5, 6, 7, 8

VTS_01 :
Play Length:
Video: PAL 4:3 (720x576) VBR
Audio:
Not specified (Dolby AC3, 2 ch)

VTS_02 :
Play Length:
Video: PAL 16:9 (720x576) VBR, Auto Letterboxed
Audio:
Not specified (Dolby AC3, 2 ch)

VTS_03 :
Play Length:
Video: PAL 16:9 (720x576) VBR, Auto Letterboxed
Audio:
Not specified (Dolby AC3, 2 ch)

VTS_04 :
Play Length: 00:44:20
Video: PAL 16:9 (720x576) VBR, Auto Letterboxed
Audio:
Russian (Dolby AC3, 2 ch)

VTS_05 :
Play Length: 00:44:40
Video: PAL 16:9 (720x576) VBR, Auto Letterboxed
Audio:
Russian (Dolby AC3, 2 ch)

VTS_06 :
Play Length:
Video: PAL 16:9 (720x576) VBR, Auto Letterboxed
Audio:
Russian (Dolby AC3, 2 ch)

VTS_07 :
Play Length:
Video: PAL 16:9 (720x576) VBR, Auto Letterboxed
Audio:
Russian (Dolby AC3, 2 ch)

Menu Video:
NTSC 4:3 (720x480) VBR
Auto Pan&Scan, Auto Letterboxed
Menu English Language Unit :
Root Menu
Chapter (PTT) Menu

Audio #1: AC3, 2/0 ch, 224Kbps, Delay 0 mSec

Size: 3.77 Gb ( 3 949 678 KBytes ) - DVD-5
Enabled regions: 1, 2, 3, 4, 5, 6, 7, 8

VTS_01 :
Play Length:
Video: PAL 4:3 (720x576) VBR
Audio:
Not specified (Dolby AC3, 2 ch)

VTS_02 :
Play Length:
Video: PAL 16:9 (720x576) VBR, Auto Letterboxed
Audio:
Not specified (Dolby AC3, 2 ch)

VTS_03 :
Play Length:
Video: PAL 16:9 (720x576) VBR, Auto Letterboxed
Audio:
Not specified (Dolby AC3, 2 ch)

VTS_04 :
Play Length:
Video: PAL 16:9 (720x576) VBR, Auto Letterboxed
Audio:
Russian (Dolby AC3, 2 ch)

VTS_05 :
Play Length:
Video: PAL 16:9 (720x576) VBR, Auto Letterboxed
Audio:
Russian (Dolby AC3, 2 ch)

VTS_06 :
Play Length: 00:45:56
Video: PAL 16:9 (720x576) VBR, Auto Letterboxed
Audio:
Russian (Dolby AC3, 2 ch)

VTS_07 :
Play Length: 00:46:34
Video: PAL 16:9 (720x576) VBR, Auto Letterboxed
Audio:
Russian (Dolby AC3, 2 ch)

Menu Video:
NTSC 4:3 (720x480) VBR
Auto Pan&Scan, Auto Letterboxed
Menu English Language Unit :
Root Menu
Chapter (PTT) Menu

Audio #1: AC3, 2/0 ch, 224Kbps, Delay 0 mSec



[align=center] [/align]











   Похожие торренты   Торрент   Размер 
В этой теме нет новых непрочитанных сообщений. Операция Горгона [01-04 из 04] (2011) DVDRip от MediaClub | КПК

118 | 6

821.5 МБ

В этой теме нет новых непрочитанных сообщений. Операция Горгона [01-04 из 04] (2011) DVD9 | Лицензия

95 | 7

7.58 ГБ

В этой теме нет новых непрочитанных сообщений. Операция Горгона [01-04 из 04] (2011) WEB-DL 1080p от Files-x

83 | 5

4.14 ГБ

В этой теме нет новых непрочитанных сообщений. Операция Горгона [01-04 из 04] (2011) WEB-DLRip-AVC от Files-x

331 | 22

2.29 ГБ

В этой теме нет новых непрочитанных сообщений. Операция "Горгона" [01-04 из 04] (2011) DVDRip | Лицензия

77 | 9

2.74 ГБ

В этой теме нет новых непрочитанных сообщений. Операция Горгона [01-04 из 04] (2010) DVDRip-AVC от SilverCinema

9 | 9

2.69 ГБ

В этой теме нет новых непрочитанных сообщений. Операция «Арго» / Argo (2012) DVD5 | Сжатый

27 | 8

4.37 ГБ




Вы не можете начинать темы
Вы не можете отвечать на сообщения
Вы не можете редактировать свои сообщения
Вы не можете удалять свои сообщения
Вы не можете добавлять вложения

Перейти:  
Для Мосгорсуда, Роскомнадзора и рекламодателей: mosgorsud-torrent[собачка]yandex.ru
 Вход
ppkBB3cker v.2 © 2008-2014 @ PPK
[ Time : 0.027s | 14 Queries | GZIP : Off ]

Торрент трекер RUTOR.IN, Не можете зайти на rutor.org? Какой новый адрес рутор? Какое зеркало рутор? Не работает rutor.org и зеркала? Тогда наш торрент специально для вас. Rutor.in неофициальное зеркало rutor. В случае если у Вас заблокирован rutor или вдруг Вы не можете на него зайти, то Вы без труда сможете скачать бесплатно и без рекламы последние новинки кино, игр, сериалов и прочего у нас, на Rutor.in. Не нужно использовать прокси, чтобы зайти на рутор, достаточно воспользоваться нашим ресурсом. Все новые фильмы, игры, сериалы, книги и музыка за 2013 и 2014 годы через торрент бесплатно. Скачивайте фильмы в хорошем качестве, игры для пк, xbox, playstation без регистрации. У нас вы найдете новые Зарубежные сериалы и Русские сериалы 2013, 2014, 2015 годов. Оставайтесь с нами, качайте любимые фильмы, игры, сериалы, книги и музыку.