img image001 image001 image001 image001 image001 image001 image001 image001 image001 image001 image001 image001 image001 image001 image001

Planets Sun Sun Sun
Статистика раздачи
Автор: Снежана | Размер: 14.02 ГБ | Добавлен: 25 июл 2013
Раздают: 2    Качают: 1
Скачать торрент
Скачать торрент
Описание торрента

СообщениеДобавлено: 25 июл 2013 

Год выпуска: 2012
Производство: ООО "Арт Пикчерс Медиа"
Жанр: криминал
Продолжительность: ~0:43:00 серия
Субтитры: отсутствуют

Режиссер: Алексей Рудаков

В ролях: Владимир Епифанцев, Ирина Лачина, Александр Стриженов, Светлана Немоляева, Михаил Полицеймако, Елена Дробышева, Анатолий Журавлёв, Галина Звягинцева, Наталия Житкова, Сергей Фролов, Алексей Ильин, Иван Рудаков, Тамара Череповская, Полина Шулика, Игорь Пазыч, Денис Варенов, Николай Круглов, Александр Пугачев

Описание: Капитан полиции и кинолог Илья Смагин (Владимир Епифанцев) во время спецоперации по обезвреживанию банды наркодилеров теряет своего напарника и верного друга - пса Рагдая. Смагин тяжело переживает потерю, но, несмотря на уговоры сослуживцев и своей жены-художницы Тони (Ирина Лачина), не спешит брать новую собаку. Рагдай был лучшим "поисковиком" кинологической службы, и Смагин не верит, что ему когда-нибудь удастся найти пса, равного ему.
Однако когда Илья уже решает начать поиски новой собаки, судьба преподносит ему неожиданный подарок. Смагину передают письмо от погибшего товарища, в котором тот просит позаботиться о его ретривере Луше....

Релиз:


Качество: DVB
Формат: MPEG-PS
Видео кодек: MPEG2
Аудио кодек: MP2
Видео: MPEG 2, 720x576 (4:3), 25.000 fps, 5392 Kbps (0.520 bit/pixel)
Аудио: MP2, 48.0 KHz, 2 ch, 256 Kbps, CBR
Общее
Полное имя : L:РаздачиСобачья работаСобачья работа.01.mpg
Формат : MPEG-PS
Размер файла : 1,77 Гбайт
Продолжительность : 43 м.
Режим общего битрейта : Переменный
Общий поток : 5763 Кбит/сек
Библиотека кодирования : (c) 1998-2012 Womble Multimedia, Inc. / MPEG Video Wizard DVD 5.0.1.100 (03/2011) / Sep 7 2012

Видео
Идентификатор : 224 (0xE0)
Формат : MPEG Video
Версия формата : Version 2
Профиль формата : Main@Main
Параметр BVOP формата : Да
Параметр матрицы формата : Выборочная
Продолжительность : 43 м.
Вид битрейта : Переменный
Битрейт : 5392 Кбит/сек
Максимальный битрейт : 10000 Кбит/сек
Ширина : 720 пикселей
Высота : 576 пикселей
Соотношение сторон : 4:3
Частота кадров : 25,000 кадров/сек
Стандарт вещания : PAL
Цветовое пространство : YUV
Субдискретизация насыщенности : 4:2:0
Битовая глубина : 8 бит
Тип развёртки : Чересстрочная
Порядок развёртки : Верхнее поле первое
Метод сжатия : С потерями
Бит/(Пиксели*Кадры) : 0.520
Размер потока : 1,66 Гбайт (94%)
Библиотека кодирования : (c) 1998-2012 Womble Multimedia, Inc. / MPEG Video Wizard DVD 5.0.1.100 (03/2011) / Sep 7 2012

Аудио
Идентификатор : 192 (0xC0)
Формат : MPEG Audio
Версия формата : Version 1
Профиль формата : Layer 2
Продолжительность : 43 м.
Вид битрейта : Постоянный
Битрейт : 256 Кбит/сек
Каналы : 2 канала
Частота : 48,0 КГц
Метод сжатия : С потерями
Задержка видео : -40 мс.
Размер потока : 80,5 Мбайт (4%)






   Похожие торренты   Торрент   Размер 
В этой теме нет новых непрочитанных сообщений. Работа для собак / Собачья работа / Dogs with jobs [01-29 из 65] (2000-2004) SATRip от HitWay | P1

22 | 13

7.43 ГБ

В этой теме нет новых непрочитанных сообщений. Работа для собак / Собачья работа / Dogs with jobs [01-31 из 65] (2000-2004) SATRip от HitWay | P1

0 | 13

7.95 ГБ

В этой теме нет новых непрочитанных сообщений. Работа для собак / Собачья работа / Dogs with jobs [01-32 из 65] (2000-2004) SATRip от HitWay | P1

3 | 4

8.21 ГБ

В этой теме нет новых непрочитанных сообщений. Собачья работа [01-08 из 08] (2012) DVDRip | КПК

1 | 1

1.31 ГБ

В этой теме нет новых непрочитанных сообщений. Собачья работа [01-08 из 08] (2012) DVD9 R5 от Youtracker

0 | 1

7.4 ГБ

В этой теме нет новых непрочитанных сообщений. Собачья работа [01-08 из 08] (2012) DVDRip от Generalfilm

11 | 3

3.53 ГБ

В этой теме нет новых непрочитанных сообщений. Собачья работа [01-08 из 08] (2012) HDTVRip от Getty

17 | 3

4.29 ГБ




Вы не можете начинать темы
Вы не можете отвечать на сообщения
Вы не можете редактировать свои сообщения
Вы не можете удалять свои сообщения
Вы не можете добавлять вложения

Перейти:  
Для Мосгорсуда, Роскомнадзора и рекламодателей: mosgorsud-torrent[собачка]yandex.ru
 Вход
ppkBB3cker v.2 © 2008-2014 @ PPK
[ Time : 0.046s | 14 Queries | GZIP : Off ]

Торрент трекер RUTOR.IN, Не можете зайти на rutor.org? Какой новый адрес рутор? Какое зеркало рутор? Не работает rutor.org и зеркала? Тогда наш торрент специально для вас. Rutor.in неофициальное зеркало rutor. В случае если у Вас заблокирован rutor или вдруг Вы не можете на него зайти, то Вы без труда сможете скачать бесплатно и без рекламы последние новинки кино, игр, сериалов и прочего у нас, на Rutor.in. Не нужно использовать прокси, чтобы зайти на рутор, достаточно воспользоваться нашим ресурсом. Все новые фильмы, игры, сериалы, книги и музыка за 2013 и 2014 годы через торрент бесплатно. Скачивайте фильмы в хорошем качестве, игры для пк, xbox, playstation без регистрации. У нас вы найдете новые Зарубежные сериалы и Русские сериалы 2013, 2014, 2015 годов. Оставайтесь с нами, качайте любимые фильмы, игры, сериалы, книги и музыку.