img image001 image001 image001 image001 image001 image001 image001 image001 image001 image001 image001 image001 image001 image001 image001

Planets Sun Sun Sun
Статистика раздачи
Автор: Снежана | Размер: 5.68 ГБ | Добавлен: 26 июл 2013
Раздают: 18    Качают: 7
Скачать торрент
Скачать торрент
Описание торрента

СообщениеДобавлено: 26 июл 2013 


Элементарно / Elementary

Год выпуска: 2012
Страна: США
Жанр: Криминал, драма, детектив
Продолжительность: 00:45:00
Перевод: Русские субтитры (notabenoid)

Русские субтитры: есть
Режиссёр: Джон Дэвид Коулз, Майкл Куэста

В ролях: Джонни Ли Миллер, Люси Лью, Эйдан Куинн, Билл Хек, Уорд Хортон, Мэнни Перез и др.
Описание:
Новая интерпретация классического произведения Артура Конана Дойла о Шерлоке Холмсе. Но сюжет сериала будет развиваться не по классическому сценарию, главный герой поменяет не только прописку, он переедет из Лондона в Нью-Йорк, но и эпоху, сюжет будет разворачиваться в наше время. Также зрителей ждет еще один сюрприз, теперь у Шерлока будет не помощник в лице Доктора Ватсона а помощница, роль которой досталось обворожительной Люси Лью.

«Элементарно» - современная криминальная драма о дуэте детектива Шерлока Холмса (Джонни Ли Миллер) и доктора Джоан Ватсон (Люси Лю), который решает самые запутанные дела в полицейском департаменте Нью-Йорка. После опалы в Лондоне и сроке в реабилитационном центре эксцентричный Шерлок Холмс убегает в Нью-Йорк, на Манхеттен, где его богатый отец заставляет сосуществовать Шерлока с его самым страшным ночным кошмаром – компаньоном, ведущим трезвый образ жизни, доктором Ватсон.

Она была успешным хирургом до того, как потеряла пациента, и лишилась лицензии три года назад. Ватсон рассматривает свою работу как ещё одну возможность помогать людям и таким образом искупать свой грех. Однако беспокойный Шерлок не такой, как её другие пациенты. Он информирует её о том, что её опыт и квалификация нарколога к нему неприменима и что он придумал свой собственный постреабилитационный режим. И Шерлок возвращается к работе в качестве консультанта полиции в Нью-Йорке. У Ватсон нет выбора, кроме как сопровождать своего раздражительного подопечного в его работе. С другой стороны, Шерок находит полезным её опыт работы медиком, и Ватсон понимает, что может использовать свои знания в расследованиях.

Капитан полиции Тобиас «Тоби» Грегсон (Эйдан Куинн), знакомый с Шерлоком по своему предыдущему опыту работы в Скотланд Ярде, знает, что Холмс прекрасно раскрывает дела и приветствует его, как часть команды. Поскольку непослушный Шерлок Холмс теперь свободно перемещается по Нью-Йорку, раскрывая преступления, простой дедукцией можно заключить, что ему нужен кто-то, кто будет его контролировать, и элементарно, что это работа Ватсон.





Качество: HDTVRip-AVC
Формат: MP4
Видео кодек: AVC
Аудио кодек: AAC
Видео: AVC, 720x404 (16:9), 23.976 fps, 756 Kbps, 0.108 bit/pixel
Аудио: AAC, 48.0 KHz, 2 channels, 147 Kbps - оригинал

Субтитры: есть

General
Complete name : D:ФільмиНе удалятыElementary_1_seasonElementary.S01E02.HDTV.x264-LOL.mp4
Format : MPEG-4
Format profile : Base Media
Codec ID : isom
File size : 269 MiB
Duration : 43mn 2s
Overall bit rate : 874 Kbps
Encoded date : UTC 2012-10-03 19:28:50
Tagged date : UTC 2012-10-03 19:28:50

Video
ID : 1
Format : AVC
Format/Info : Advanced Video Codec
Format profile : High@L3.1
Format settings, CABAC : Yes
Format settings, ReFrames : 5 frames
Codec ID : avc1
Codec ID/Info : Advanced Video Coding
Duration : 43mn 2s
Bit rate mode : Variable
Bit rate : 756 Kbps
Maximum bit rate : 3 657 Kbps
Width : 720 pixels
Height : 404 pixels
Display aspect ratio : 16:9
Frame rate mode : Constant
Frame rate : 23.976 fps
Color space : YUV
Chroma subsampling : 4:2:0
Bit depth : 8 bits
Scan type : Progressive
Bits/(Pixel*Frame) : 0.108
Stream size : 233 MiB (87%)
Writing library : x264 core 128 r2216 198a7ea
Encoding settings : cabac=1 / ref=5 / deblock=1:1:1 / analyse=0x3:0x133 / me=umh / subme=9 / psy=1 / psy_rd=1.00:0.00 / mixed_ref=1 / me_range=16 / chroma_me=1 / trellis=2 / 8x8dct=1 / cqm=0 / deadzone=21,11 / fast_pskip=0 / chroma_qp_offset=-2 / threads=20 / lookahead_threads=3 / sliced_threads=0 / nr=0 / decimate=1 / interlaced=0 / bluray_compat=0 / constrained_intra=0 / bframes=3 / b_pyramid=2 / b_adapt=2 / b_bias=0 / direct=3 / weightb=1 / open_gop=0 / weightp=2 / keyint=250 / keyint_min=23 / scenecut=40 / intra_refresh=0 / rc_lookahead=60 / rc=crf / mbtree=1 / crf=19.0 / qcomp=0.60 / qpmin=0 / qpmax=69 / qpstep=4 / ip_ratio=1.40 / aq=1:1.00
Encoded date : UTC 2012-10-04 17:53:10
Tagged date : UTC 2012-10-03 19:28:58
Matrix coefficients : BT.709-5, BT.1361, IEC 61966-2-4 709, SMPTE RP177

Audio
ID : 2
Format : AAC
Format/Info : Advanced Audio Codec
Format version : Version 4
Format profile : LC
Format settings, SBR : No
Codec ID : 40
Duration : 43mn 2s
Bit rate mode : Variable
Bit rate : 114 Kbps
Maximum bit rate : 147 Kbps
Channel(s) : 2 channels
Channel positions : Front: L R
Sampling rate : 48.0 KHz
Stream size : 35.0 MiB (13%)
Encoded date : UTC 2012-10-03 19:28:54
Tagged date : UTC 2012-10-03 19:28:58

1 серия - "Pilot" - 27 сентября 2012
2 серия - "The Balloon Man" - 4 октября 2012
3 серия - "Child Predator" - 11 октября 2012
4 серия - "The Rat Race"- 25 октября 2012
5 серия - "Lesser Evils" - 2 ноября 2012
6 серия - "Flight Risk" - 9 ноября 2012
7 серия - "One Way to Get Off"- 16 ноября 2012
8 серия - "The Long Fuse"- 30 ноября 2012
9 серия - "You Do It To Yourself" - 7 декабря 2012
10 серия - "The Leviathan" - 14 декабря 2012
11 серия - "Dirty Laundry" - 4 января 2013
12 серия - "М" - 11 января 2013
13 серия - "The Red Team" - 1 февраля
14 серия - "The Deductionist" - 4 февраля
15 серия - "A Giant Gun, Filled with Drugs" - 8 февраля
16 серия - 15 февраля
17 серия - 22 февраля
18 серия - 8 марта
19 серия - 15 марта
20 серия - 26 марта
21 серия - A Landmark Story - 3 мая
22 серия - Risk Management - 10 мая
23 серия - The Woman - 17 мая
24 серия - Heroine - 17 мая

Внимание! Раздача ведётся путём добавления новых серий; при каждом добавлении создётся новый торрент. Чтобы начать докачку новой серии, пользователям необходимо сделать следующее:

Остановить скачивание.
Удалить старый торрент у себя из клиента (старые серии удалять не надо).
Скачать новый торрент и запустить его у себя в клиенте вместо старого, при этом указать клиенту путь в старую папку куда и должно происходить скачивание новых серий.

Ваш клиент при этом должен произвести хеширование (проверку) старой папки (если не производит сам - помогите ему сделать это), и будет докачивать только те серии которых у вас ещё нет. Старые серии при этом не удаляются, а продолжают раздаваться!
Eсли вы уже удалили старые серии, то предотвратить повторную закачку старых серий можно, отжав галочку в соответсвующих местах при запуске нового торрента. По возможности, желательно не удалять старые серии как можно дольше чтобы релизёр не столько продолжал раздавать старые серии, а смог сконцентрироваться на новых.



   Похожие торренты   Торрент   Размер 
В этой теме нет новых непрочитанных сообщений. Элементарно / Elementary [S01] (2012-2013) WEB-DLRip | D

84 | 35

10.55 ГБ

В этой теме нет новых непрочитанных сообщений. Элементарно / Elementary [S01] (2012) WEB-DL 1080p от NewStudio

6 | 7

41.67 ГБ

В этой теме нет новых непрочитанных сообщений. Элементарно / Elementary [S01] (2012) WEB-DL 720p | NewStudio

19 | 22

35.07 ГБ

В этой теме нет новых непрочитанных сообщений. Элементарно / Elementary [02x01-13] (2013) HDTVRip | Kerob

0 | 2

5.63 ГБ

В этой теме нет новых непрочитанных сообщений. Элементарно / Elementary [02x01-12] (2013) HDTVRip | Kerob

0 | 3

5.21 ГБ

В этой теме нет новых непрочитанных сообщений. Элементарно / Elementary [02x01-24 из 24] (2013) HDTVRip | Kerob

83 | 161

10.08 ГБ

В этой теме нет новых непрочитанных сообщений. Элементарно / Elementary [02x01-19] (2013) HDTVRip | Kerob

92 | 1717

8.04 ГБ




Вы не можете начинать темы
Вы не можете отвечать на сообщения
Вы не можете редактировать свои сообщения
Вы не можете удалять свои сообщения
Вы не можете добавлять вложения

Перейти:  
Для Мосгорсуда, Роскомнадзора и рекламодателей: mosgorsud-torrent[собачка]yandex.ru
 Вход
ppkBB3cker v.2 © 2008-2014 @ PPK
[ Time : 0.090s | 15 Queries | GZIP : Off ]

Торрент трекер RUTOR.IN, Не можете зайти на rutor.org? Какой новый адрес рутор? Какое зеркало рутор? Не работает rutor.org и зеркала? Тогда наш торрент специально для вас. Rutor.in неофициальное зеркало rutor. В случае если у Вас заблокирован rutor или вдруг Вы не можете на него зайти, то Вы без труда сможете скачать бесплатно и без рекламы последние новинки кино, игр, сериалов и прочего у нас, на Rutor.in. Не нужно использовать прокси, чтобы зайти на рутор, достаточно воспользоваться нашим ресурсом. Все новые фильмы, игры, сериалы, книги и музыка за 2013 и 2014 годы через торрент бесплатно. Скачивайте фильмы в хорошем качестве, игры для пк, xbox, playstation без регистрации. У нас вы найдете новые Зарубежные сериалы и Русские сериалы 2013, 2014, 2015 годов. Оставайтесь с нами, качайте любимые фильмы, игры, сериалы, книги и музыку.