img image001 image001 image001 image001 image001 image001 image001 image001 image001 image001 image001 image001 image001 image001 image001

Planets Sun Sun Sun
Статистика раздачи
Автор: Снежана | Размер: 31.63 ГБ | Добавлен: 25 июл 2013
Раздают: 5    Качают: 13
Скачать торрент
Скачать торрент
Описание торрента

СообщениеДобавлено: 25 июл 2013 

#77

Название: Хорошая жена
оригинальное название: The Good Wife
Год выпуска: 2012
Страна: США
Студия: Scott Free Productions, King Size Productions, Small Wishes
Жанр: драма
Продолжительность: 22 х ~ 00:45:00
Перевод: Профессиональный (многоголосый закадровый) - NewStudio
Субтитры: Отсутствуют
Режиссер: Мишель Кинг, Роберт Кинг
В ролях: Джулиана Маргулис (Алисия Флоррик), Крис Нот (Питер Флоррик), Джош Чарльз (Уилл Гарднер), Кристин Барански (Дайан Локхарт), Мэтт Чукри (Кэри Эгос), Арчи Панджаби (Калинда Шарма), Алан Камминг ( Илай Голд), Макензи Вега (Грейс Флоррик), Грэхэм Филлипс ( Зак Флоррик), Мэри Бет Пейл (Джеки Флоррик)

Описание: Благополучное существование Алисии Флоррик, счастливой жены и матери двух детей, было разрушено, когда её муж, чикагский прокурор Питер Флоррик, оказался в центре секс-скандала. Осуждённый за коррупцию Питер отправился в тюрьму, а на плечи Алисии легла забота о семье.
Пришлось вспомнить свои навыки адвоката. Старый друг взял Алисию к себе в фирму - младшим сотрудником, наравне с свежими выпускниками юридического колледжа, и теперь Алисия должна построить свою карьеру практически с нуля, не переставая заботиться о семье и продолжая испытывать негативные последствия скандала вокруг мужа.
В сериале смешаны семейная и юридическая драмы примерно в равных пропорциях. В каждой серии рассказывается история про дело, которое ведёт фирма "Стерн, Локхарт и Гарднер", куда Алисия устроилась на работу. И в каждой серии показывается жизнь её семьи, а заодно разворачивается сквозной детективный сюжет вокруг Питера - ведь его подставили под обвинение в коррупции не просто так.
Вновь обретённая работа, любовь к детям, сложные отношения с мужем, взаимодействие с коллегами - вот из чего состоит жизнь этой женщины, на первый взгляд беззащитной и мягкой, но в реальности очень сильной и упорной.



Озвучка: Светлана Слободенюк, Константин Погодаев, Анна Тух
Перевод: PtyZa
Подготовка видео: Koss
Работа со звуком: Baggio



Качество: WEB-DL 720p
Формат: MKV
Видео кодек: AVC
Аудио кодек: AC3
Видео: AVC, 1280x720 (16/9), 23.976 fps, ~ 4000 Kbps (0.181 bit/pixel)
Аудио (rus): 48 kHz, AC3, 3/2 (L,C,R,l,r) + LFE ch, ~384.00 kbps avg
Аудио (eng): 48 kHz, AC3, 3/2 (L,C,R,l,r) + LFE ch, ~384.00 kbps avg

Добавлена 21-22-ая серии. Сезон полностью.

01. Я сражался с законом / I Fought the Law
02. И закон победил / And The Law Won
03. Две Девушки, Одна Код / Two Girls, One Code
04. Не Дымке Меня, Братан / Don't Haze Me, Bro
05. В ожидании / Waiting for the Knock
06. Искусство войны / The Art of Wa
07. Анатомия шутки / Anatomy of a Joke
08. Поговорим о судье / Here Comes the Judge
09. A Defense of Marriage
10. Битва Посредников / Battle of the Proxies
11. Осенняя мелодия / Boom De Yah Da
12. Je Ne Sais What?
Формат : Matroska
Размер файла : 1,43 Гбайт
Продолжительность : 43 м.
Общий поток : 4711 Кбит/сек
Дата кодирования : UTC 2010-02-22 21:41:31
Программа кодирования : mkvmerge v5.9.0 ('On The Loose') built on Dec 9 2012 15:37:01
Библиотека кодирования : libebml v1.3.0 + libmatroska v1.4.0

Видео
Идентификатор : 1
Формат : AVC
Формат/Информация : Advanced Video Codec
Профиль формата : High@L3.1
Параметр CABAC формата : Нет
Параметр ReFrames формата : 2 кадра
Идентификатор кодека : V_MPEG4/ISO/AVC
Продолжительность : 43 м.
Битрейт : 3849 Кбит/сек
Ширина : 1280 пикс.
Высота : 720 пикс.
Соотношение сторон : 16:9
Частота кадров : 23,976 кадр/сек
Цветовое пространство : YUV
Подвыборка цветности : 4:2:0
Битовая глубина : 8 бит
Тип развёртки : Прогрессивная
Бит/(Пиксели*Кадры) : 0.174
Размер потока : 1,17 Гбайт (82%)
Заголовок : The Good Wife - Season 4, Episode 9: A Defense of Marriage
Язык : English
Основные цвета : BT.709-5, BT.1361, IEC 61966-2-4, SMPTE RP177
Характеристики трансфера : BT.709-5, BT.1361
Коэффициенты матрицы : BT.709-5, BT.1361, IEC 61966-2-4 709, SMPTE RP177

Аудио #1
Идентификатор : 2
Формат : AC-3
Формат/Информация : Audio Coding 3
Расширение режима : CM (complete main)
Идентификатор кодека : A_AC3
Продолжительность : 43 м.
Вид битрейта : Постоянный
Битрейт : 384 Кбит/сек
Каналы : 6 каналов
Расположение каналов : Front: L C R, Side: L R, LFE
Частота : 48,0 КГц
Битовая глубина : 16 бит
Метод сжатия : С потерями
Размер потока : 119 Мбайт (8%)
Язык : Russian

Аудио #2
Идентификатор : 3
Формат : AC-3
Формат/Информация : Audio Coding 3
Расширение режима : CM (complete main)
Идентификатор кодека : A_AC3
Продолжительность : 43 м.
Вид битрейта : Постоянный
Битрейт : 384 Кбит/сек
Каналы : 6 каналов
Расположение каналов : Front: L C R, Side: L R, LFE
Частота : 48,0 КГц
Битовая глубина : 16 бит
Метод сжатия : С потерями
Размер потока : 119 Мбайт (8%)
Заголовок : Dolby Digital 5.1 @ 384 kbps
Язык : English



Релиз от:



   Похожие торренты   Торрент   Размер 
В этой теме нет новых непрочитанных сообщений. Хорошая жена / Правильная жена / The Good Wife [S05] (2013-2014) WEB-DL 720p | NewStudio

63 | 10

32.03 ГБ

В этой теме нет новых непрочитанных сообщений. Хорошая жена / Правильная жена / The Good Wife [05x01-12] (2013-2014) WEB-DL 720p | NewStudio

0 | 2

17.56 ГБ

В этой теме нет новых непрочитанных сообщений. Хорошая жена / The Good Wife [S04] (2012) WEB-DLRip | NewStudio

36 | 66

11.82 ГБ

В этой теме нет новых непрочитанных сообщений. Хорошая Жена / Правильная жена / The Good Wife [S02] (2010) WEB-DLRip от Newstudio

24 | 3

12.36 ГБ

В этой теме нет новых непрочитанных сообщений. Хорошая жена / Правильная жена / The Good Wife [06x01 из 22] (2014) WEB-DLRip | NewStudio

296 | 91

549.36 МБ

В этой теме нет новых непрочитанных сообщений. Хорошая жена / Правильная жена / The Good Wife [S05] (2013-2014) WEB-DLRip | NewStudio

174 | 387

11.82 ГБ

В этой теме нет новых непрочитанных сообщений. Хорошая жена / Правильная жена / The Good Wife [S01-06] (2009-2015) WEB-DLRip | NewStudio

170 | 394

68.62 ГБ




Вы не можете начинать темы
Вы не можете отвечать на сообщения
Вы не можете редактировать свои сообщения
Вы не можете удалять свои сообщения
Вы не можете добавлять вложения

Перейти:  
Для Мосгорсуда, Роскомнадзора и рекламодателей: mosgorsud-torrent[собачка]yandex.ru
 Вход
ppkBB3cker v.2 © 2008-2014 @ PPK
[ Time : 0.062s | 16 Queries | GZIP : Off ]

cron