img image001 image001 image001 image001 image001 image001 image001 image001 image001 image001 image001 image001 image001 image001 image001

Planets Sun Sun Sun
Статистика раздачи
Автор: Снежана | Размер: 4.37 ГБ | Добавлен: 25 июл 2013
Раздают: 130    Качают: 21
Скачать торрент
Скачать торрент
Описание торрента

СообщениеДобавлено: 25 июл 2013 

#77
Год выпуска: 2011
Выпущено: США, Норвегия / Rubicon TV AS

Жанр: драма, комедия, криминал
Продолжительность: ~ 00:45:00 / серия

Перевод: Профессиональный (многоголосый, закадровый) Первый канал
Оригинальная аудиодорожка: нет
Субтитры: нет

Режиссер: Гер Хеннинг Хопланд / Geir Henning Hopland, Симен Альсвик / Simen Alsvik, Лиза Мари Гамлем / Lisa Marie Gamlem

В ролях: Стив Ван Зандт, Мариан Саастад Оттесен, Тронд Фауса Аурвааг, Энн Кригсволл, Стейнар Саген, Микаэль Акснес-Персон, Свен Нордин, Фридтьов Сохейм, Кюрре Хеллум, Томми Карлсен...

Описание: Тальяно сдал своего босса федералам, и теперь, в рамках программы по защите свидетелей, он переезжает в Лиллехаммер, небольшой норвежский городок, когда-то приютивший зимние олимпийские игры. Сам Фрэнк называет его Лилихэммером, отсюда и название сериала. Фрэнк мечтает о рае с «чистым воздухом, белым снегом и клевыми телками», вдали от соблазнов Нью-Йорка и от карателей мафии. Реальность, конечно же, оказывается не такой, как мечты.






Качество: HDRip (BDRip 720p)
Формат: AVI

Видео: 720x400 (16:9), 25.000 fps, XviD ~ 1340 kbps avg, 0.186 bit/pixel
Аудио: 48 kHz, Dolby AC3 5.1 384 kbps, русский

Раздача от:
Релиз рассчитан для записи на одну болванку DVD5. Звук в данном релизе наконец-то нормальный шестиканальный АС3. Во всех предыдущих релизах звук двухканальный и убитый при прослушивании разница очень сильно чувствуется. Понизил оригинальный звук до 384 кбпс, поскольку качество исходного звука не выше соответствующего порога (18 кгц), что позволило оставить больше места для видео.

1. Reality Check / Проверка Реальности
2. The Flamingo / Фламинго
3. Guantanamo Blues / Блюз по Гуантанамо
4. The Midwife / Повитуха
5. My Kind of Town / Такой Город Мне По Вкусу
6. Pack Your Lederhosen / Пакуйте Кожаные Штаны
7. The Babysitter / Нянька
8. Trolls / Тролли

Общее
Полное имя : Lillehammer.s01.2011.P.HDRip_[Youtracker]_by_avproh1.avi
Формат : AVI
Формат/Информация : Audio Video Interleave
Размер файла : 560 Мбайт
Продолжительность : 45 м.
Общий поток : 1733 Кбит/сек
Программа кодирования : VirtualDubModRus 1.5.10.2 (build 2542/release)
Библиотека кодирования : VirtualDubMod build 2542/release

Видео
Идентификатор : 0
Формат : MPEG-4 Visual
Профиль формата : Advanced Simple@L5
Параметр BVOP формата : 1
Параметр QPel формата : Нет
Параметр GMC формата : Без точки перехода
Параметр матрицы формата : Выборочная
Идентификатор кодека : XVID
Идентификатор кодека/Подсказка : XviD
Продолжительность : 45 м.
Битрейт : 1340 Кбит/сек
Ширина : 720 пикселей
Высота : 400 пикселей
Соотношение сторон : 16:9
Частота кадров : 25,000 кадров/сек
Цветовое пространство : YUV
Субдискретизация насыщенности : 4:2:0
Битовая глубина : 8 бит
Тип развёртки : Прогрессивная
Метод сжатия : С потерями
Бит/(Пиксели*Кадры) : 0.186
Размер потока : 433 Мбайт (77%)
Библиотека кодирования : XviD 65

Аудио
Идентификатор : 1
Формат : AC-3
Формат/Информация : Audio Coding 3
Расширение режима : CM (complete main)
Параметр Endianness формата : Big
Идентификатор кодека : 2000
Продолжительность : 45 м.
Вид битрейта : Постоянный
Битрейт : 384 Кбит/сек
Каналы : 6 каналов
Расположение каналов : Front: L C R, Side: L R, LFE
Частота : 48,0 КГц
Битовая глубина : 16 бит
Метод сжатия : С потерями
Размер потока : 124 Мбайт (22%)
Выравнивание : Разделение по промежуткам
Продолжительность промежутка : 40 мс. (1,00 видеокадр)
Время предзагрузки промежутка : 500 мс.





   Похожие торренты   Торрент   Размер 
В этой теме нет новых непрочитанных сообщений. Лиллехаммер / Lilyhammer [01x01-08 из 08] (2012) HDRip-AVC от Youtracker | P | лицензия

124 | 51

4.36 ГБ

В этой теме нет новых непрочитанных сообщений. Лиллехаммер / Lilyhammer [01x01-08 из 08] (2012) 2xDVD9 R5 от Youtracker | P | лицензия

4 | 4

14.19 ГБ

В этой теме нет новых непрочитанных сообщений. Лиллехаммер / Lilyhammer [01x01] (2012) WEB-DLRip 1080p | NovaFilm

1 | 8

2.17 ГБ

В этой теме нет новых непрочитанных сообщений. Лиллехаммер / Lilyhammer [S01] (2012) HDRip | P

90 | 13

4.3 ГБ

В этой теме нет новых непрочитанных сообщений. Лиллехаммер / Lilyhammer [S01-03] (2012-2014) HDRip от qqss44 | Сербин

8 | 2

16.09 ГБ

В этой теме нет новых непрочитанных сообщений. Лиллехаммер / Lilyhammer [S01-03] (2012-2014) HDRip от qqss44 | Amedia

10 | 13

16.01 ГБ

В этой теме нет новых непрочитанных сообщений. Лиллехаммер / Lilyhammer [S01] (2012) WEB-DLRip-AVC | A

35 | 9

7.07 ГБ




Вы не можете начинать темы
Вы не можете отвечать на сообщения
Вы не можете редактировать свои сообщения
Вы не можете удалять свои сообщения
Вы не можете добавлять вложения

Перейти:  
Для Мосгорсуда, Роскомнадзора и рекламодателей: mosgorsud-torrent[собачка]yandex.ru
 Вход
ppkBB3cker v.2 © 2008-2014 @ PPK
[ Time : 0.072s | 15 Queries | GZIP : Off ]

Торрент трекер RUTOR.IN, Не можете зайти на rutor.org? Какой новый адрес рутор? Какое зеркало рутор? Не работает rutor.org и зеркала? Тогда наш торрент специально для вас. Rutor.in неофициальное зеркало rutor. В случае если у Вас заблокирован rutor или вдруг Вы не можете на него зайти, то Вы без труда сможете скачать бесплатно и без рекламы последние новинки кино, игр, сериалов и прочего у нас, на Rutor.in. Не нужно использовать прокси, чтобы зайти на рутор, достаточно воспользоваться нашим ресурсом. Все новые фильмы, игры, сериалы, книги и музыка за 2013 и 2014 годы через торрент бесплатно. Скачивайте фильмы в хорошем качестве, игры для пк, xbox, playstation без регистрации. У нас вы найдете новые Зарубежные сериалы и Русские сериалы 2013, 2014, 2015 годов. Оставайтесь с нами, качайте любимые фильмы, игры, сериалы, книги и музыку.
cron