img image001 image001 image001 image001 image001 image001 image001 image001 image001 image001 image001 image001 image001 image001 image001

Planets Sun Sun Sun
Статистика раздачи
Автор: Снежана | Размер: 11.05 ГБ | Добавлен: 25 июл 2013
Раздают: 41    Качают: 12
Скачать торрент
Скачать торрент
Описание торрента

СообщениеДобавлено: 25 июл 2013 

#77

Название: Прослушка
Оригинальное название: The Wire
Год выпуска: 2002
Жанр: Триллер, драма, криминал, детектив
Режиссер: Джо Чаппелль, Клемент Вирго, Роб Бэйли
В ролях: Доминик Уэст, Джон Доумен, Дирдри Лавджой, Уенделл Пирс, Лэнс Реддик, Соня Сон, Сет Гиллиам, Доменик Ломбардоззи, Кларк Питерс, Андре Ройо, Майкл К. Уильямс, Джим Тру-Фрост, Фрэнки Фэйзон, Кори Паркер Робинсон, Делани Уильямс, Дж.Д. Уильямс, Вуд Харрис, Идрис Эльба, Майкл Кострофф, Трей Чейни, Исайя Уитлок мл., Майкл Салкони, Роберт Ф. Чю, Эдвард Т. Норрис, Хассан Джонсон

Описание: Самый популярный в америке сериал про полицейских. Сериал повествует о полицейских расследованиях в Балтиморе. Именно этот сериал, любимый сериал полицейских и гангстеров помог правоохранительным органам разгромить сеть наркоторговцев. Полицейские источники сообщили, что лидеры преступной группировки вели себя в точности как герои телесериала, в частности, постоянно меняли мобильные телефоны, затрудняя прослушивание. В ходе подготовки операции полицейские широко применяли прослушивание телефонных разговоров гангстеров. В результате были арестованы 12 человек, изъяты 43 кг кокаина, 500.000 долларов наличными, 18 единиц оружия и пять дорогостоящих автомобилей. Бандиты, оказавшиеся большими поклонниками "Прослушки", помимо обсуждения своих дел по телефону, говорили и о сюжете очередной серии. Полицейские, прослушивавшие их, тоже любили этот фильм. Если мы пропускали какой-то эпизод, то всегда могли узнать подробности из их бесед, – сообщили стражи порядка Криминальная драма, написана, снята и спродюсирована в Балтиморе бывшим полицейским репортером Дэвидом Саймоном.



Страна: США
Продолжительность: 13 х ~ 00:58:00
Перевод: Авторский - Юрий Сербин
Субтитры: нет



Качество: DVDRip
Формат: AVI
Видео: XviD, ~ 1241 Кбит/с, 576x432
Аудио rus: AC3, 6 ch, 384 Кбит/с
Аудио eng: AC3, 6 ch, 384 Кбит/с

01. Цель / The Target
02. Наряд / The Detail
03. Закупки / The Buys
04. Старые Дела / Old Cases
05. Пейджер / The Pager
06. Прослушка/ The Wire
07. Один Арест / One Arrest
08. Экзамены / Lessons
09. Игровой День / Game Day
10. Цена / The Cost
11. Охота / The Hunt
12. Зачистка / Cleaning Up
13. Приговор / Sentencing
General
Format : AVI
Format/Info : Audio Video Interleave
File size : 873 MiB
Duration : 1h 2mn
Overall bit rate : 1 964 Kbps
Writing application : VirtualDubMod 1.5.10.2 (build 2542/release)
Writing library : VirtualDubMod build 2542/release

Video #0
ID : 0
Format : MPEG-4 Visual
Format profile : Advanced Simple@L5
Format settings, BVOP : 2
Format settings, QPel : No
Format settings, GMC : No warppoints
Format settings, Matrix : Default (H.263)
Muxing mode : Packed bitstream
Codec ID : XVID
Codec ID/Hint : XviD
Duration : 1h 2mn
Bit rate : 1 182 Kbps
Width : 576 pixels
Height : 432 pixels
Display aspect ratio : 4:3
Frame rate : 23.976 fps
Color space : YUV
Chroma subsampling : 4:2:0
Bit depth : 8 bits
Scan type : Progressive
Compression mode : Lossy
Bits/(Pixel*Frame) : 0.198
Stream size : 525 MiB (60%)
Writing library : XviD 1.0.2 (UTC 2004-08-29)

Audio #1
ID : 1
Format : AC-3
Format/Info : Audio Coding 3
Mode extension : CM (complete main)
Codec ID : 2000
Duration : 1h 2mn
Bit rate mode : Constant
Bit rate : 384 Kbps
Channel(s) : 6 channels
Channel positions : Front: L C R, Side: L R, LFE
Sampling rate : 48.0 KHz
Bit depth : 16 bits
Compression mode : Lossy
Stream size : 171 MiB (20%)
Alignment : Split accross interleaves
Interleave, duration : 42 ms (1.00 video frame)
Interleave, preload duration : 500 ms

Audio #2
ID : 2
Format : AC-3
Format/Info : Audio Coding 3
Mode extension : CM (complete main)
Codec ID : 2000
Duration : 1h 2mn
Bit rate mode : Constant
Bit rate : 384 Kbps
Channel(s) : 6 channels
Channel positions : Front: L C R, Side: L R, LFE
Sampling rate : 48.0 KHz
Bit depth : 16 bits
Compression mode : Lossy
Stream size : 171 MiB (20%)
Alignment : Split accross interleaves
Interleave, duration : 42 ms (1.00 video frame)
Interleave, preload duration : 500 ms




Релиз от:



   Похожие торренты   Торрент   Размер 
В этой теме нет новых непрочитанных сообщений. Прослушка / The Wire [S01-S05] (2002-2008) DVDRip | КПК

14 | 13

11.02 ГБ

В этой теме нет новых непрочитанных сообщений. Прослушка / The Wire [S01] (2002) DVDRip | 1001cinema

13 | 5

13.53 ГБ

В этой теме нет новых непрочитанных сообщений. Прослушка / The Wire [S01-05] (2002-2008) DVDRip | P

95 | 82

41.9 ГБ

В этой теме нет новых непрочитанных сообщений. Прослушка / The Wire [S01] (2002) DVDRip | 1001cinema

66 | 15

5.53 ГБ

В этой теме нет новых непрочитанных сообщений. Прослушка / The Wire [S01] (2002) WEB-DLRip от Scarabey | А + Р

462 | 92

12.67 ГБ

В этой теме нет новых непрочитанных сообщений. Прослушка / The Wire [S01-05] (2002-2008) WEB-DLRip

316 | 280

39.53 ГБ

В этой теме нет новых непрочитанных сообщений. Прослушка / The Wire [S01] (2002) BDRip-AVC от HQ-ViDEO

18 | 18

21.7 ГБ




Вы не можете начинать темы
Вы не можете отвечать на сообщения
Вы не можете редактировать свои сообщения
Вы не можете удалять свои сообщения
Вы не можете добавлять вложения

Перейти:  
Для Мосгорсуда, Роскомнадзора и рекламодателей: mosgorsud-torrent[собачка]yandex.ru
 Вход
ppkBB3cker v.2 © 2008-2014 @ PPK
[ Time : 3.084s | 15 Queries | GZIP : On ]

Торрент трекер RUTOR.IN, Не можете зайти на rutor.org? Какой новый адрес рутор? Какое зеркало рутор? Не работает rutor.org и зеркала? Тогда наш торрент специально для вас. Rutor.in неофициальное зеркало rutor. В случае если у Вас заблокирован rutor или вдруг Вы не можете на него зайти, то Вы без труда сможете скачать бесплатно и без рекламы последние новинки кино, игр, сериалов и прочего у нас, на Rutor.in. Не нужно использовать прокси, чтобы зайти на рутор, достаточно воспользоваться нашим ресурсом. Все новые фильмы, игры, сериалы, книги и музыка за 2013 и 2014 годы через торрент бесплатно. Скачивайте фильмы в хорошем качестве, игры для пк, xbox, playstation без регистрации. У нас вы найдете новые Зарубежные сериалы и Русские сериалы 2013, 2014, 2015 годов. Оставайтесь с нами, качайте любимые фильмы, игры, сериалы, книги и музыку.