img image001 image001 image001 image001 image001 image001 image001 image001 image001 image001 image001 image001 image001 image001 image001

Planets Sun Sun Sun
Статистика раздачи
Автор: Снежана | Размер: 31.13 ГБ | Добавлен: 25 июл 2013
Раздают: 26    Качают: 11
Скачать торрент
Скачать торрент
Описание торрента

СообщениеДобавлено: 25 июл 2013 

#77

Название: Красавица и чудовище
Оригинальное название: Beauty and the Beast
Год выпуска: 2012
Страна: США
Жанр: Детектив, мелодрама
Продолжительность: 22 х ~ 00:43:00
Перевод: Профессиональный (многоголосый закадровый) - LostFilm
Субтитры: Нет
Режиссер: Гэри Фледер

В ролях: Кристин Кройк, Брайан Дж. Уайт, Николь Гэйл Андерсон, Джей Райан, Макс Браун, Остин Басис, Нина Лизандрелло, Ник Стоянович

Описание: Современная история классической любовной мелодрамы "Красавица и чудовище" . Show case представляет новый фантастический одноименный сериал о жизни копа полиции Нью-Йорка, которая имеет больших и влиятельных врагов, и ее жизнь была под угрозой, но у нее есть ангел хранитель, который всегда следует за ней, и вытаскивает ее из страшных ситуаций. Но лицо он не стремится показывать ведь он чудовище, но с влюбленным сердцем...



Автор WEB-DL 720p • KiNGS
Работа со звуком • Gater
Релиз подготовил • Gater



Качество: WEB-DL 720p
Формат: MKV
Видео кодек: MPEG-4 AVC
Аудио кодек: AC3
Видео: MPEG-4 AVC, ~4000 Кбит/с, 1280x720
Аудио rus: AC3, 6 ch, 384 Кбит/с
Аудио eng: AC3, 6 ch, 384 Кбит/с

Полный первый сезон.
Раздача полностью заменена. Теперь звук 6 каналов.


01. Пилот
02. Соблюдайте осторожность
03. Всё включено
04. Основной инстинкт / Basic Instinct
05. Возвращение Сатурна / Saturn Returns
06. Цена / Worth
07. Неуправляемый / Out of Control
08. В ловушке / Trapped
09. Подружка невесты, встань! / Bridesmaid Up!
10. Обезумевший / Seeing Red
11. По тонкому льду / On Thin Ice
12. В завязке / Cold Turkey
13. Никому не верь / Trust No One
14. Трудная любовь / Tough Love
15. Все средства хороши
16. Ненасытный / Insatiable
17. Напарники по преступлению / Partners in Crime
18. Сердце тьмы / Heart of Darkness
19. Игра с огнем / Playing with Fire
20. Годовщина / Anniversary
21. Вечер свиданий / Date Night
22. Не смотри назад / Never Turn Back
Общее
Уникальный идентификатор : 224117169190719432550804506591772373262 (0xA89B658F69EDD787AC93882E83E5710E)
Полное имя : E:Красавица и ЧудовищеBeauty and the Beast S01 WEB-DL 720p (DD 5.1 Lostfilm)Beauty and the Beast S01E01 WEB-DL 720p (DD 5.1 Lostfilm).mkv
Формат : Matroska
Версия формата : Version 2
Размер файла : 1,44 Гбайт
Продолжительность : 42 м.
Общий поток : 4825 Кбит/сек
Дата кодирования : UTC 2012-12-31 15:27:04
Программа кодирования : mkvmerge v4.0.0 ('The Stars were mine') сборка от Jun 6 2010 16:18:42
Библиотека кодирования : libebml v1.0.0 + libmatroska v1.0.0

Видео
Идентификатор : 1
Формат : AVC
Формат/Информация : Advanced Video Codec
Профиль формата : High@L3.1
Параметр CABAC формата : Нет
Параметр ReFrames формата : 2 кадра
Идентификатор кодека : V_MPEG4/ISO/AVC
Продолжительность : 42 м.
Битрейт : 3961 Кбит/сек
Ширина : 1280 пикселей
Высота : 720 пикселей
Соотношение сторон : 16:9
Частота кадров : 23,976 кадра/сек
Цветовое пространство : YUV
Субдискретизация насыщенности : 4:2:0
Битовая глубина : 8 бит
Тип развёртки : Прогрессивная
Бит/(Пиксели*Кадры) : 0.179
Размер потока : 1,18 Гбайт (82%)
Язык : English
Default : Нет
Forced : Нет
Основные цвета : BT.709-5, BT.1361, IEC 61966-2-4, SMPTE RP177
Характеристики трансфера : BT.709-5, BT.1361
Коэффициенты матрицы : BT.709-5, BT.1361, IEC 61966-2-4 709, SMPTE RP177

Аудио #1
Идентификатор : 2
Формат : AC-3
Формат/Информация : Audio Coding 3
Расширение режима : CM (complete main)
Параметр Endianness формата : Big
Идентификатор кодека : A_AC3
Продолжительность : 42 м.
Вид битрейта : Постоянный
Битрейт : 384 Кбит/сек
Каналы : 6 каналов
Расположение каналов : Front: L C R, Side: L R, LFE
Частота : 48,0 КГц
Битовая глубина : 16 бит
Метод сжатия : С потерями
Размер потока : 117 Мбайт (8%)
Язык : Russian
Default : Да
Forced : Нет

Аудио #2
Идентификатор : 3
Формат : AC-3
Формат/Информация : Audio Coding 3
Расширение режима : CM (complete main)
Параметр Endianness формата : Big
Идентификатор кодека : A_AC3
Продолжительность : 42 м.
Вид битрейта : Постоянный
Битрейт : 384 Кбит/сек
Каналы : 6 каналов
Расположение каналов : Front: L C R, Side: L R, LFE
Частота : 48,0 КГц
Битовая глубина : 16 бит
Метод сжатия : С потерями
Размер потока : 117 Мбайт (8%)
Язык : English
Default : Нет
Forced : Нет








   Похожие торренты   Торрент   Размер 
В этой теме нет новых непрочитанных сообщений. Красавица и чудовище / Beauty and the Beast [S01] (2012) WEB-DLRip | LostFilm

174 | 46

10.22 ГБ

В этой теме нет новых непрочитанных сообщений. Красавица и чудовище / Beauty and the Beast [S01] (2012) WEB-DLRip | LostFilm

64 | 25

10.22 ГБ

В этой теме нет новых непрочитанных сообщений. Красавица и Чудовище / Beauty and the Beast [S01-03] (2012-2015) WEB-DLRip от GeneralFilm | LostFilm

51 | 69

28.16 ГБ

В этой теме нет новых непрочитанных сообщений. Красавица и Чудовище / Beauty and the Beast [S02] (2013-2014) WEB-DLRip 720p | LostFilm

22 | 180

31.23 ГБ

В этой теме нет новых непрочитанных сообщений. Красавица и Чудовище / Beauty and the Beast [04х01 из 13] (2016) WEB-DL 720p от GeneralFilm | LostFilm

11 | 1

1.39 ГБ

В этой теме нет новых непрочитанных сообщений. Красавица и Чудовище / Beauty and the Beast [02x01-19 из 22] (2013-2014) WEB-DLRip 720p | LostFilm

19 | 23

26.95 ГБ

В этой теме нет новых непрочитанных сообщений. Красавица и Чудовище / Beauty and the Beast [02x01-20 из 22] (2013-2014) WEB-DLRip 720p | LostFilm

14 | 58

28.4 ГБ




Вы не можете начинать темы
Вы не можете отвечать на сообщения
Вы не можете редактировать свои сообщения
Вы не можете удалять свои сообщения
Вы не можете добавлять вложения

Перейти:  
Для Мосгорсуда, Роскомнадзора и рекламодателей: mosgorsud-torrent[собачка]yandex.ru
 Вход
ppkBB3cker v.2 © 2008-2014 @ PPK
[ Time : 0.530s | 14 Queries | GZIP : Off ]

Торрент трекер RUTOR.IN, Не можете зайти на rutor.org? Какой новый адрес рутор? Какое зеркало рутор? Не работает rutor.org и зеркала? Тогда наш торрент специально для вас. Rutor.in неофициальное зеркало rutor. В случае если у Вас заблокирован rutor или вдруг Вы не можете на него зайти, то Вы без труда сможете скачать бесплатно и без рекламы последние новинки кино, игр, сериалов и прочего у нас, на Rutor.in. Не нужно использовать прокси, чтобы зайти на рутор, достаточно воспользоваться нашим ресурсом. Все новые фильмы, игры, сериалы, книги и музыка за 2013 и 2014 годы через торрент бесплатно. Скачивайте фильмы в хорошем качестве, игры для пк, xbox, playstation без регистрации. У нас вы найдете новые Зарубежные сериалы и Русские сериалы 2013, 2014, 2015 годов. Оставайтесь с нами, качайте любимые фильмы, игры, сериалы, книги и музыку.