img image001 image001 image001 image001 image001 image001 image001 image001 image001 image001 image001 image001 image001 image001 image001

Planets Sun Sun Sun
Статистика раздачи
Автор: Снежана | Размер: 10.22 ГБ | Добавлен: 25 июл 2013
Раздают: 9    Качают: 7
Скачать торрент
Скачать торрент
Описание торрента

СообщениеДобавлено: 25 июл 2013 

#77

Год выпуска: 2012
Производство: StarMedia
Жанр: Военный, драма, документальный
Продолжительность: 00:45:00
Субтитры: Отсутствуют
Язык: Русский

Режиссёр: Олег Бобало-Яремчук

Описание: Рассказ о выполнении разведчиками конкретных и реальных заданий в тылу противника, о судьбах этих героев и об исторических обстоятельствах, в которых происходили описываемые события. Проект сделан в жанре документальной драмы с реконструкцией событий. По характеру съемки, монтажа, использования музыки, раскрытия характера героев, применения компьютерной графики - это фактически художественный фильм, вставленный в документальный формат. Исторически-документальные пояснения основаны на кадрах уникальной кинохроники.

Сэмпл: http://multi-up.com/864099

Доп. информация: Релиз -


Рип чистый. Без посторонних надписей. Выкладывается как есть.

Качество: HDTV 1080i
Контейнер: TS
Видео кодек: AVC
Аудио кодек: AC3
Видео: 1920x1080 (16:9) 25.000 fps 7 858 Kbps, 0.152 bit/pixel
Аудио: MPEG Audio 48000Hz stereo 192 Кбит/сек



GeneralID : 1 (0x1)Complete name : J:ВЫКЛАДКАHDTVСериалыДиверсанты (2013, Военный, Документальный, HDTV) (MYDIMKA)�1 серия.tsFormat : MPEG-TSFile size : 2.53 GiBDuration : 43mn 4sOverall bit rate mode : VariableOverall bit rate : 8 412 Kbps

VideoID : 2911 (0xB5F)Menu ID : 1 (0x1)Format : AVCFormat/Info : Advanced Video CodecFormat profile : High@L4.0Format settings, CABAC : YesFormat settings, ReFrames : 3 framesCodec ID : 27Duration : 43mn 4sBit rate : 7 802 KbpsWidth : 1 920 pixelsHeight : 1 080 pixelsDisplay aspect ratio : 16:9Frame rate : 25.000 fpsColor space : YUVChroma subsampling : 4:2:0Bit depth : 8 bitsScan type : MBAFFBits/(Pixel*Frame) : 0.151Stream size : 2.35 GiB (93%)

AudioID : 2912 (0xB60)Menu ID : 1 (0x1)Format : MPEG AudioFormat version : Version 1Format profile : Layer 2Codec ID : 3Duration : 43mn 4sBit rate mode : ConstantBit rate : 192 KbpsChannel(s) : 2 channelsSampling rate : 48.0 KHzCompression mode : LossyStream size : 59.1 MiB (2%)Language : Russian



   Похожие торренты   Торрент   Размер 
В этой теме нет новых непрочитанных сообщений. Диверсанты [01-04 из 04] (2013) HDTVRip-AVC

80 | 6

2.45 ГБ

В этой теме нет новых непрочитанных сообщений. Диверсанты [01-04 из 04] (2013) HDTVRip

132 | 27

2.14 ГБ

В этой теме нет новых непрочитанных сообщений. Диверсанты [01-04 из 04] (2013) WEB-DLRip от Generalfilm

400 | 22

2.19 ГБ

В этой теме нет новых непрочитанных сообщений. Диверсанты [01-04 из 04] (2013) HDTVRip 720p

125 | 11

4.91 ГБ

В этой теме нет новых непрочитанных сообщений. Сектор Зеро / Section zéro [01-04 из 8] (2016) HDTV 1080i HDTV 1080i от MediaClub | P

10 | 3

9.5 ГБ

В этой теме нет новых непрочитанных сообщений. Велоспорт. Арктическая гонка Норвегии 2013 / Arctic Race of Norway 2013 (2013) HDTV 1080i

0 | 3

8.64 ГБ

В этой теме нет новых непрочитанных сообщений. Новая волна-2013. Первый конкурсный день. Мировой хит (эфир от 2013.07.24) (2013) HDTV 1080i от MediaClub

3 | 2

8.65 ГБ




Вы не можете начинать темы
Вы не можете отвечать на сообщения
Вы не можете редактировать свои сообщения
Вы не можете удалять свои сообщения
Вы не можете добавлять вложения

Перейти:  
Для Мосгорсуда, Роскомнадзора и рекламодателей: mosgorsud-torrent[собачка]yandex.ru
 Вход
ppkBB3cker v.2 © 2008-2014 @ PPK
[ Time : 0.546s | 15 Queries | GZIP : Off ]

Торрент трекер RUTOR.IN, Не можете зайти на rutor.org? Какой новый адрес рутор? Какое зеркало рутор? Не работает rutor.org и зеркала? Тогда наш торрент специально для вас. Rutor.in неофициальное зеркало rutor. В случае если у Вас заблокирован rutor или вдруг Вы не можете на него зайти, то Вы без труда сможете скачать бесплатно и без рекламы последние новинки кино, игр, сериалов и прочего у нас, на Rutor.in. Не нужно использовать прокси, чтобы зайти на рутор, достаточно воспользоваться нашим ресурсом. Все новые фильмы, игры, сериалы, книги и музыка за 2013 и 2014 годы через торрент бесплатно. Скачивайте фильмы в хорошем качестве, игры для пк, xbox, playstation без регистрации. У нас вы найдете новые Зарубежные сериалы и Русские сериалы 2013, 2014, 2015 годов. Оставайтесь с нами, качайте любимые фильмы, игры, сериалы, книги и музыку.