img image001 image001 image001 image001 image001 image001 image001 image001 image001 image001 image001 image001 image001 image001 image001

Planets Sun Sun Sun
Статистика раздачи
Автор: Снежана | Размер: 2.18 ГБ | Добавлен: 25 июл 2013
Раздают: 76    Качают: 4
Скачать торрент
Скачать торрент
Описание торрента

СообщениеДобавлено: 25 июл 2013 

Год выпуска: 2011
Производство: Украина, Россия / Star Media по заказу телеканала «Россия 1»
Жанр: драма, военный
Продолжительность: 00:45:00
Субтитры: нет

Режиссёр: Александр Даруга
В ролях: Алексей Воробьев, Ксения Суркова, Владимир Гостюхин, Дмитрий Куличков, Николай Иванов, Алексей Гришин, Кирилл Бурдихин, Кирилл Кяро, Дмитрий Гусев, Владимир Ямненко, Дмитрий Лавров, Павел Галич
Описание: Командир взвода лейтенант Кравцов прибывает в действующую армию. Военная судьба, в среднем, отмеряла таким лейтенантам всего три дня жизни. За это время, Кравцов должен стать командиром для своих солдат и повести их в безнадежную атаку, спасая наступающий полк… Сможет ли он выжить в эти три дня? Ведь это так несправедливо - умирать в восемнадцать лет.

Сэмпл
Качество: DVDRip-AVC [Рип с DVD9]
Формат: MKV
Видео кодек: H.264
Аудио кодек: AC3
Видео: x264, 716 х 418**764 х 418 (16:9), 25,000 кадр/сек, ~1547 Кбит/сек, ~0.207 bit/pixel
Аудио: AC3, 48.0 KHz, 2 канала(ов), 192 kbs
Три дня лейтенанта Кравцова.01 серия.2011.DVDRip-AVC.Metla111.mkv
Format : Matroska
Format version : Version 2
File size : 557 MiB
Duration : 44mn 41s
Overall bit rate : 1 744 Kbps
Encoded date : UTC 2012-10-12 09:02:55
Writing application : mkvmerge v5.8.0 ('No Sleep / Pillow') built on Sep 2 2012 15:37:04
Writing library : libebml v1.2.3 + libmatroska v1.3.0

Video
ID : 1
Format : AVC
Format/Info : Advanced Video Codec
Format profile : High@L3.1
Format settings, CABAC : Yes
Format settings, ReFrames : 10 frames
Codec ID : V_MPEG4/ISO/AVC
Duration : 44mn 41s
Bit rate : 1 547 Kbps
Width : 716 pixels
Height : 418 pixels
Display aspect ratio : 1.85:1
Original display aspect ratio : 1.85:1
Frame rate mode : Constant
Frame rate : 25.000 fps
Color space : YUV
Chroma subsampling : 4:2:0
Bit depth : 8 bits
Scan type : Progressive
Bits/(Pixel*Frame) : 0.207
Stream size : 485 MiB (87%)
Writing library : x264 core 125 r2208 d9d2288
Encoding settings : cabac=1 / ref=10 / deblock=1:-3:-3 / analyse=0x3:0x133 / me=umh / subme=9 / psy=1 / psy_rd=1.00:0.10 / mixed_ref=1 / me_range=24 / chroma_me=1 / trellis=2 / 8x8dct=1 / cqm=0 / deadzone=21,11 / fast_pskip=1 / chroma_qp_offset=-3 / threads=6 / lookahead_threads=1 / sliced_threads=0 / nr=0 / decimate=1 / interlaced=0 / bluray_compat=0 / constrained_intra=0 / bframes=8 / b_pyramid=2 / b_adapt=2 / b_bias=0 / direct=3 / weightb=1 / open_gop=0 / weightp=2 / keyint=250 / keyint_min=25 / scenecut=40 / intra_refresh=0 / rc=2pass / mbtree=0 / bitrate=1547 / ratetol=1.0 / qcomp=0.60 / qpmin=0 / qpmax=69 / qpstep=4 / cplxblur=20.0 / qblur=0.5 / ip_ratio=1.40 / pb_ratio=1.30 / aq=1:1.00
Default : Yes
Forced : No
Color primaries : BT.601 PAL
Transfer characteristics : BT.470 System B, BT.470 System G
Matrix coefficients : BT.601

Audio
ID : 2
Format : AC-3
Format/Info : Audio Coding 3
Mode extension : CM (complete main)
Format settings, Endianness : Big
Codec ID : A_AC3
Duration : 44mn 41s
Bit rate mode : Constant
Bit rate : 192 Kbps
Channel(s) : 2 channels
Channel positions : Front: L R
Sampling rate : 48.0 KHz
Bit depth : 16 bits
Compression mode : Lossy
Stream size : 61.4 MiB (11%)
Default : Yes
Forced : No



Релиз:



   Похожие торренты   Торрент   Размер 
В этой теме нет новых непрочитанных сообщений. Три дня лейтенанта Кравцова [01-04 из 04] (2011) DVDRip

340 | 58

2.51 ГБ

В этой теме нет новых непрочитанных сообщений. Три дня лейтенанта Кравцова [01-02 из 02] (2011) HDTVRip

2 | 2

2.24 ГБ

В этой теме нет новых непрочитанных сообщений. Три дня лейтенанта Кравцова [01-04 из 04] (2011) DVD9

27 | 18

6.88 ГБ

В этой теме нет новых непрочитанных сообщений. Три дня лейтенанта Кравцова [01-04 из 04] (2011) WEB-DL 720p

399 | 81

3.4 ГБ

В этой теме нет новых непрочитанных сообщений. Три дня лейтенанта Кравцова [01-02 из 02] (2011) HDTVRip-AVC от Files-х

166 | 13

2.76 ГБ

В этой теме нет новых непрочитанных сообщений. Три дня лейтенанта Кравцова [01-04 из 04] (2011) HDTV 1080i

7 | 5

10.62 ГБ

В этой теме нет новых непрочитанных сообщений. Три дня лейтенанта Кравцова [01-04 из 04] (2011) HDTVRip 720p

26 | 13

5.08 ГБ




Вы не можете начинать темы
Вы не можете отвечать на сообщения
Вы не можете редактировать свои сообщения
Вы не можете удалять свои сообщения
Вы не можете добавлять вложения

Перейти:  
Для Мосгорсуда, Роскомнадзора и рекламодателей: mosgorsud-torrent[собачка]yandex.ru
 Вход
ppkBB3cker v.2 © 2008-2014 @ PPK
[ Time : 0.061s | 14 Queries | GZIP : On ]

Торрент трекер RUTOR.IN, Не можете зайти на rutor.org? Какой новый адрес рутор? Какое зеркало рутор? Не работает rutor.org и зеркала? Тогда наш торрент специально для вас. Rutor.in неофициальное зеркало rutor. В случае если у Вас заблокирован rutor или вдруг Вы не можете на него зайти, то Вы без труда сможете скачать бесплатно и без рекламы последние новинки кино, игр, сериалов и прочего у нас, на Rutor.in. Не нужно использовать прокси, чтобы зайти на рутор, достаточно воспользоваться нашим ресурсом. Все новые фильмы, игры, сериалы, книги и музыка за 2013 и 2014 годы через торрент бесплатно. Скачивайте фильмы в хорошем качестве, игры для пк, xbox, playstation без регистрации. У нас вы найдете новые Зарубежные сериалы и Русские сериалы 2013, 2014, 2015 годов. Оставайтесь с нами, качайте любимые фильмы, игры, сериалы, книги и музыку.