img image001 image001 image001 image001 image001 image001 image001 image001 image001 image001 image001 image001 image001 image001 image001

Planets Sun Sun Sun
Статистика раздачи
Автор: Снежана | Размер: 10.62 ГБ | Добавлен: 25 июл 2013
Раздают: 7    Качают: 5
Скачать торрент
Скачать торрент
Описание торрента

СообщениеДобавлено: 25 июл 2013 

#77

Год выпуска: 2011
Производство: СтарМедия
Жанр: Военный
Продолжительность: 02:59:54
Субтитры: Отсутствуют

Режиссёр: Александр Даруга

В ролях: Алексей Воробьев, Ксения Суркова, Владимир Гостюхин, Дмитрий Куличков, Николай Иванов, Алексей Гришин, Кирилл Бурдихин, Кирилл Кяро, Дмитрий Гусев, Владимир Ямненко, Дмитрий Лавров, Павел Галич и другие.

Описание: Командир взвода лейтенант Кравцов прибывает в действующую армию. Военная судьба, в среднем, отмеряла таким лейтенантам всего три дня жизни. За это время, Кравцов должен стать командиром для своих солдат и повести их в безнадежную атаку, спасая наступающий полк… Сможет ли он выжить в эти три дня? Ведь это так несправедливо — умирать в восемнадцать лет.

Сэмпл: http://multi-up.com/864110

Доп. информация: Релиз -


Рип чистый. Без посторонних надписей. Выкладывается как есть.

Качество: HDTV 1080i
Контейнер: TS
Видео кодек: AVC
Аудио кодек: AC3
Видео: 1920x1080 (16:9) 25.000 fps 7 858 Kbps, 0.152 bit/pixel
Аудио: MPEG Audio 48000Hz stereo 192 Кбит/сек



GeneralID : 1 (0x1)Complete name : J:ВЫКЛАДКАHDTVСериалыТри дня лейтенанта Кравцова (2011, Военный, HDTV) (MYDIMKA)\01 серия.tsFormat : MPEG-TSFile size : 5.31 GiBDuration : 1h 30mnOverall bit rate mode : VariableOverall bit rate : 8 446 Kbps

VideoID : 2911 (0xB5F)Menu ID : 1 (0x1)Format : AVCFormat/Info : Advanced Video CodecFormat profile : High@L4.0Format settings, CABAC : YesFormat settings, ReFrames : 3 framesCodec ID : 27Duration : 1h 30mnBit rate : 7 835 KbpsWidth : 1 920 pixelsHeight : 1 080 pixelsDisplay aspect ratio : 16:9Frame rate : 25.000 fpsColor space : YUVChroma subsampling : 4:2:0Bit depth : 8 bitsScan type : MBAFFBits/(Pixel*Frame) : 0.151Stream size : 4.93 GiB (93%)

AudioID : 2912 (0xB60)Menu ID : 1 (0x1)Format : MPEG AudioFormat version : Version 1Format profile : Layer 2Mode : Joint stereoMode extension : Intensity Stereo + MS StereoCodec ID : 3Duration : 1h 30mnBit rate mode : ConstantBit rate : 192 KbpsChannel(s) : 2 channelsSampling rate : 48.0 KHzCompression mode : LossyStream size : 124 MiB (2%)Language : Russian



   Похожие торренты   Торрент   Размер 
В этой теме нет новых непрочитанных сообщений. Три дня лейтенанта Кравцова [01-04 из 04] (2011) DVD9

27 | 18

6.88 ГБ

В этой теме нет новых непрочитанных сообщений. Три дня лейтенанта Кравцова [01-02 из 02] (2011) HDTVRip

2 | 2

2.24 ГБ

В этой теме нет новых непрочитанных сообщений. Три дня лейтенанта Кравцова [01-04 из 04] (2011) DVDRip

340 | 58

2.51 ГБ

В этой теме нет новых непрочитанных сообщений. Три дня лейтенанта Кравцова [01-04 из 04] (2011) WEB-DL 720p

399 | 81

3.4 ГБ

В этой теме нет новых непрочитанных сообщений. Три дня лейтенанта Кравцова [01-04 из 04] (2011) DVDRip-AVC

76 | 4

2.18 ГБ

В этой теме нет новых непрочитанных сообщений. Три дня лейтенанта Кравцова [01-02 из 02] (2011) HDTVRip-AVC от Files-х

138 | 9

2.76 ГБ

В этой теме нет новых непрочитанных сообщений. Три дня лейтенанта Кравцова [01-04 из 04] (2011) HDTVRip 720p

26 | 13

5.08 ГБ




Вы не можете начинать темы
Вы не можете отвечать на сообщения
Вы не можете редактировать свои сообщения
Вы не можете удалять свои сообщения
Вы не можете добавлять вложения

Перейти:  
Для Мосгорсуда, Роскомнадзора и рекламодателей: mosgorsud-torrent[собачка]yandex.ru
 Вход
ppkBB3cker v.2 © 2008-2014 @ PPK
[ Time : 0.058s | 16 Queries | GZIP : Off ]

cron