img image001 image001 image001 image001 image001 image001 image001 image001 image001 image001 image001 image001 image001 image001 image001

Planets Sun Sun Sun
Статистика раздачи
Автор: Снежана | Размер: 3.27 ГБ | Добавлен: 25 июл 2013
Раздают: 27    Качают: 3
Скачать торрент
Скачать торрент
Описание торрента

СообщениеДобавлено: 25 июл 2013 

#77

Информация о фильме
Оригинальное название: Сила Веры
Год выпуска: 2013
Жанр: Мелодрама
Выпущено: Россия
Продолжительность: 4х ~ 00:45:00
Режиссер: Александр Карпиловский
В ролях: Марина Денисова, Никита Салопин, Максим Щёголев, Галина Петрова, Анжелика Агурбаш, Святослав Астрамович, Алеся Пуховая, Дмитрий Пустильник, Инна Коляда

О фильме: Тридцатилетняя Вера всю жизнь мечтала стать матерью. Но увы, познать счастье материнства ей не дано. Однажды она обнаруживает, что именно это явилось причиной измены мужа: у него есть другая семья, в которой родился ребенок. Вера думает, что никогда не простит этого поступка. Однако жизнь заставляет ее изменить свое решение: спустя время бывший муж, вместе с новой женой, гибнут в автомобильной катастрофе, а ребенок, явившийся причиной одиночества Веры, остается сиротой. Сумеет ли героиня полюбить чужое дитя и понять, что мать это не та, кто родила, а та, кто воспитала.

Файл
Качество: DVB
Формат: MPEG-PS
Видео кодек: MPEG2
Аудио кодек: MP2
Видео: MPEG2 Video, 544x576 (4:3), 25 fps, 2350 Kbps, 0.30 bit/pixel
Аудио: MPEG Audio, 48 kHz, 1 ch, 128 kbps
General
Complete name : C:Сила Веры_1-4 из 4_2013_DVB.mpg
Format : MPEG-PS
File size : 3.27 GiB
Duration : 3h 4mn
Overall bit rate mode : Variable
Overall bit rate : 2 528 Kbps

Video
ID : 224 (0xE0)
Format : MPEG Video
Format version : Version 2
Format profile : Main@Main
Format settings, BVOP : Yes
Format settings, Matrix : Custom
Format settings, GOP : M=3, N=12
Duration : 3h 4mn
Bit rate mode : Variable
Bit rate : 2 350 Kbps
Maximum bit rate : 9 000 Kbps
Width : 544 pixels
Height : 576 pixels
Display aspect ratio : 4:3
Frame rate : 25.000 fps
Color space : YUV
Chroma subsampling : 4:2:0
Bit depth : 8 bits
Scan type : Interlaced
Scan order : Top Field First
Compression mode : Lossy
Bits/(Pixel*Frame) : 0.300
Time code of first frame : 00:00:00:00
Time code source : Group of pictures header
Stream size : 3.04 GiB (93%)

Audio
ID : 192 (0xC0)
Format : MPEG Audio
Format version : Version 1
Format profile : Layer 2
Duration : 3h 4mn
Bit rate mode : Constant
Bit rate : 128 Kbps
Channel(s) : 1 channel
Sampling rate : 48.0 KHz
Compression mode : Lossy
Stream size : 169 MiB (5%)




   Похожие торренты   Торрент   Размер 
В этой теме нет новых непрочитанных сообщений. Сила Веры [01-02 из 02] (2013) HDTVRip

385 | 162

2.74 ГБ

В этой теме нет новых непрочитанных сообщений. Сила Веры [01-04 из 04] (2013) SATRip от Files-X

85 | 20

2.16 ГБ

В этой теме нет новых непрочитанных сообщений. Сила Веры - Дискография (2003-2011) MP3, WMA

3 | 4

618.13 МБ

В этой теме нет новых непрочитанных сообщений. Сила веры / Leap of Faith (1992) DVDRip

12 | 1

1.48 ГБ

В этой теме нет новых непрочитанных сообщений. Сила веры / Leap of Faith (1992) WEB-DLRip-AVC | P, A

69 | 17

2.76 ГБ

В этой теме нет новых непрочитанных сообщений. Сила веры / Leap of Faith (1992) WEB-DLRip от Leon-masl

48 | 39

1.46 ГБ

В этой теме нет новых непрочитанных сообщений. Федор Конюхов - Сила веры. 160 дней и ночей наедине с Тихим океаном (2015) FB2, EPUB

157 | 14

1.85 МБ




Вы не можете начинать темы
Вы не можете отвечать на сообщения
Вы не можете редактировать свои сообщения
Вы не можете удалять свои сообщения
Вы не можете добавлять вложения

Перейти:  
Для Мосгорсуда, Роскомнадзора и рекламодателей: mosgorsud-torrent[собачка]yandex.ru
 Вход
ppkBB3cker v.2 © 2008-2014 @ PPK
[ Time : 0.042s | 16 Queries | GZIP : Off ]

cron