img image001 image001 image001 image001 image001 image001 image001 image001 image001 image001 image001 image001 image001 image001 image001

Planets Sun Sun Sun
Статистика раздачи
Автор: Снежана | Размер: 10.34 ГБ | Добавлен: 25 июл 2013
Раздают: 46    Качают: 44
Скачать торрент
Скачать торрент
Описание торрента

СообщениеДобавлено: 25 июл 2013 

#77

Название: Подразделение 1 / Первая группа
Оригинальное название: Rejseholdet / Unit One
Год выпуска: 2002
Страна: Дания, Швеция
Жанр: триллер, драма, криминал
Продолжительность: 14 х ~ 00:58:00
Перевод: профессиональный (многоголосый закадровый) - Baibako
Субтитры: нет
Режиссер: Нильс Арден Оплев, Оле Кристиан Мадсен, Янник Йохансен

В ролях: Шарлотте Фич, Мадс Миккельсен, Ларс Бригманн, Вааге Сандо, Эрик Ведерсо, Трине Паллесен, Ларс Бом.

Описание: Подразделение 1 - это спецподразделение датской полиции для расследования особо сложных убийств. После того, как шеф подразделения сам становится жертвой загадочного убийства, выбор нового руководителя падает на женщину. Согласны ли бывшие сотрудники "убойного" подчиняться Ингрид Даль? Достаточно ли в ней опыта, упрямства и самоиронии, чтобы создать из циничных опытных полицейских свою команду единомышленников? Эта задача оказывается непростой и для команды, и для самой Ингрид... Неожиданные повороты в сценарии, участие в сериале лучших звезд датского кино (Мадс Миккельсен, Ларс Бригманн, Шарлотте Фич, Ларс Бом) обеспечили ему звание самого любимого в Дании и международный приз "Emmy Award" за лучший сериал. В каждой серии появляются новые знакомые лица, известные нам из датских Догм и других полюбившихся фильмов этой особенной кино-страны. Многие ждали этого сериала много лет, и вот он впервые в русском переводе. (с) муза



Перевод: Вадим Литвиненко
Озвучка: Татьяна Оболевич, Юлия Котурбаш, Александр Фурман и Олекса Мельник.
Монтаж: Vitall Digitall
Обложка: Татьяна Saavick



Качество: DVDRip-AVC
Формат: MP4
Видео: MPEG-4 AVC, 720x400, ~ 1500 Кбит/сек
Аудио rus: ААС, 2ch, 192 Кбит/сек
Аудио dat: ААС, 2ch, 128 Кбит/сек

General
Complete name : Rejseholdet.s03e01.DVDRip.x264.Rus.Dan.BaibaKo.tv.mp4
Format : MPEG-4
Format profile : Base Media
Codec ID : isom
File size : 720 MiB
Duration : 55mn 9s
Overall bit rate mode : Variable
Overall bit rate : 1 825 Kbps
Encoded date : UTC 2012-09-22 01:33:36
Tagged date : UTC 2012-09-22 01:33:36

Video
ID : 1
Format : AVC
Format/Info : Advanced Video Codec
Format profile : Main@L3.1
Format settings, CABAC : Yes
Format settings, ReFrames : 5 frames
Codec ID : avc1
Codec ID/Info : Advanced Video Coding
Duration : 55mn 9s
Bit rate mode : Variable
Bit rate : 1 500 Kbps
Maximum bit rate : 14.0 Mbps
Width : 720 pixels
Height : 400 pixels
Display aspect ratio : 16:9
Frame rate mode : Constant
Frame rate : 25.000 fps
Color space : YUV
Chroma subsampling : 4:2:0
Bit depth : 8 bits
Scan type : Progressive
Bits/(Pixel*Frame) : 0.208
Stream size : 591 MiB (82%)
Title : Rejseholdet s03e01(17)
Writing library : x264 core 125 r2200 999b753
Encoding settings : cabac=1 / ref=5 / deblock=1:-1:-1 / analyse=0x1:0x111 / me=umh / subme=8 / psy=1 / psy_rd=1.00:0.15 / mixed_ref=1 / me_range=16 / chroma_me=1 / trellis=1 / 8x8dct=0 / cqm=0 / deadzone=21,11 / fast_pskip=1 / chroma_qp_offset=-3 / threads=6 / lookahead_threads=1 / sliced_threads=0 / nr=0 / decimate=1 / interlaced=0 / bluray_compat=0 / constrained_intra=0 / bframes=3 / b_pyramid=0 / b_adapt=2 / b_bias=0 / direct=3 / weightb=1 / open_gop=0 / weightp=2 / keyint=250 / keyint_min=25 / scenecut=40 / intra_refresh=0 / rc_lookahead=50 / rc=2pass / mbtree=1 / bitrate=1500 / ratetol=1.0 / qcomp=0.60 / qpmin=0 / qpmax=69 / qpstep=4 / cplxblur=20.0 / qblur=0.5 / vbv_maxrate=14000 / vbv_bufsize=14000 / nal_hrd=vbr / ip_ratio=1.40 / aq=1:1.00
Encoded date : UTC 2012-09-08 10:37:50
Tagged date : UTC 2012-09-22 01:34:53

Audio #1
ID : 2
Format : AAC
Format/Info : Advanced Audio Codec
Format profile : LC
Codec ID : 40
Duration : 55mn 9s
Bit rate mode : Variable
Bit rate : 192 Kbps
Maximum bit rate : 200 Kbps
Channel(s) : 2 channels
Channel positions : Front: L R
Sampling rate : 48.0 KHz
Compression mode : Lossy
Stream size : 75.7 MiB (11%)
Language : Russian
Encoded date : UTC 2012-09-22 01:34:37
Tagged date : UTC 2012-09-22 01:34:53

Audio #2
ID : 3
Format : AAC
Format/Info : Advanced Audio Codec
Format profile : LC
Codec ID : 40
Duration : 55mn 9s
Bit rate mode : Variable
Bit rate : 128 Kbps
Maximum bit rate : 134 Kbps
Channel(s) : 2 channels
Channel positions : Front: L R
Sampling rate : 48.0 KHz
Compression mode : Lossy
Stream size : 50.5 MiB (7%)
Language : Danish
Encoded date : UTC 2012-09-22 01:34:47
Tagged date : UTC 2012-09-22 01:34:53

Релиз от:



   Похожие торренты   Торрент   Размер 
В этой теме нет новых непрочитанных сообщений. Подразделение 1 / Первая группа / Rejseholdet / Unit One [S02] (2001) DVDRip | Baibako

60 | 2

5.33 ГБ

В этой теме нет новых непрочитанных сообщений. Подразделение 1 / Первая группа / Rejseholdet / Unit One [S01] (2000) DVDRip | Baibako

62 | 9

7.47 ГБ

В этой теме нет новых непрочитанных сообщений. Подразделение 1 / Первая группа / Rejseholdet / Unit One [S04] (2003-2004) DVDRip-AVC | Baibako

66 | 2

1.97 ГБ

В этой теме нет новых непрочитанных сообщений. Подразделение / Отряд «Антитеррор» / The Unit [S01-04] (2006-2009) DVDRip, HDTVRip

5 | 8

26.99 ГБ

В этой теме нет новых непрочитанных сообщений. Подразделение / Отряд «Антитеррор» / The Unit [S01-04] (2006-2009) DVDRip, HDRip | NovaFilm | D, P

7 | 12

26.37 ГБ

В этой теме нет новых непрочитанных сообщений. Подразделение / Отряд «Антитеррор» / The Unit [S01-04] (2006-2009) HDTVRip | D, P

1 | 7

34.64 ГБ

В этой теме нет новых непрочитанных сообщений. Седьмая группа / Группа 7 / Grupo 7 / Unit 7 (2012) HDRip от Scarabey | P | Лицензия

145 | 8

1.45 ГБ




Вы не можете начинать темы
Вы не можете отвечать на сообщения
Вы не можете редактировать свои сообщения
Вы не можете удалять свои сообщения
Вы не можете добавлять вложения

Перейти:  
Для Мосгорсуда, Роскомнадзора и рекламодателей: mosgorsud-torrent[собачка]yandex.ru
 Вход
ppkBB3cker v.2 © 2008-2014 @ PPK
[ Time : 0.049s | 16 Queries | GZIP : Off ]

cron