img image001 image001 image001 image001 image001 image001 image001 image001 image001 image001 image001 image001 image001 image001 image001

Planets Sun Sun Sun
Статистика раздачи
Автор: Снежана | Размер: 9.39 ГБ | Добавлен: 25 июл 2013
Раздают: 82    Качают: 17
Скачать торрент
Скачать торрент
Описание торрента

СообщениеДобавлено: 25 июл 2013 

#77
Год выпуска: 2012
Выпущено: Россия / ДТ Продакшн

Жанр: боевик
Продолжительность: ~ 00:51:00 / серия

Перевод: не требуется
Оригинальная аудиодорожка: русский
Субтитры: нет

Режиссер: Тимур Алпатов

В ролях: Сергей Газаров, Владимир Яглыч, Гурам Баблишвили, Владислав Котлярский, Софья Торосян, Максим Важов, Карина Разумовская, Михаил Солодко, Эдуард Рябинин, Дмитрий Проданов...

Описание: Олегу Резвову не очень-то посчастливилось пожить своей жизнью. Сначала «по малолетке» отсидел в тюрьме за преступление, которое не совершал. Потом, после армии, поступил в ФСБ, где его жизнью, в общем-то, распоряжаются старшие по званию. И вот, новое задание: под видом бывшего уголовника внедриться в преступный бизнес майкопской группировки и обезвредить её. Внедриться — это значит полностью жить чужой жизнью и, практически, стать другим человеком. Но рядом бурлит обычная прекрасная жизнь, полная людей, верящих в добро, чистоту, любовь, где есть дом, семья, дети… Сложную операцию готовят и прикрывают многие люди, но свою, обычную жизнь, нельзя прожить под прикрытием. В этой жизни его хотят видеть самим собой, таким, какой он есть. Особенно те, кто его любит.






Качество: DVDRip (2xDVD9 R5)
Формат: AVI

Видео: 720x400 (16:9), 25.000 fps, XviD ~ 1800 kbps avg, 0.250 bit/pixel
Аудио: 48 kHz, Dolby AC3 5.1 384 kbps, русский

Раздача от:
Общее
Полное имя : Pod.prikrytiem.2012.O.DVDRip_[Youtracker]_by_avproh�1.avi
Формат : AVI
Формат/Информация : Audio Video Interleave
Размер файла : 803 Мбайт
Продолжительность : 51 м.
Общий поток : 2195 Кбит/сек
Программа кодирования : VirtualDubModRus 1.5.10.2 (build 2542/release)
Библиотека кодирования : VirtualDubMod build 2542/release

Видео
Идентификатор : 0
Формат : MPEG-4 Visual
Профиль формата : Advanced Simple@L5
Параметр BVOP формата : 1
Параметр QPel формата : Нет
Параметр GMC формата : Без точки перехода
Параметр матрицы формата : Выборочная
Идентификатор кодека : XVID
Идентификатор кодека/Подсказка : XviD
Продолжительность : 51 м.
Битрейт : 1802 Кбит/сек
Ширина : 720 пикселей
Высота : 400 пикселей
Соотношение сторон : 16:9
Частота кадров : 25,000 кадров/сек
Цветовое пространство : YUV
Субдискретизация насыщенности : 4:2:0
Битовая глубина : 8 бит
Тип развёртки : Прогрессивная
Метод сжатия : С потерями
Бит/(Пиксели*Кадры) : 0.250
Размер потока : 659 Мбайт (82%)
Библиотека кодирования : XviD 65

Аудио
Идентификатор : 1
Формат : AC-3
Формат/Информация : Audio Coding 3
Расширение режима : CM (complete main)
Параметр Endianness формата : Big
Идентификатор кодека : 2000
Продолжительность : 51 м.
Вид битрейта : Постоянный
Битрейт : 384 Кбит/сек
Каналы : 6 каналов
Расположение каналов : Front: L C R, Side: L R, LFE
Частота : 48,0 КГц
Битовая глубина : 16 бит
Метод сжатия : С потерями
Размер потока : 140 Мбайт (17%)
Выравнивание : Разделение по промежуткам
Продолжительность промежутка : 40 мс. (1,00 видеокадр)
Время предзагрузки промежутка : 500 мс.



http://rutor.org/torrent/273243/

Звук в моём релизе нормальный шестиканальный АС3. Во всех предыдущих релизах звук двухканальный. Понизил оригинальный звук до 384 кбпс, поскольку качество исходного звука не выше соответствующего порога (18 кгц), что позволило оставить больше места для видео. Исходник у конкурента просто никакой (http://rutor.org/torrent/270585/pod-prikrytiem-01-12-iz-12-2012-hdtv-1080i), плотность кадра 0.150, на DVD, с которого я делал рип - примерно 0.300, сначала хотел было сделать HDTVRip и даже скодировал одну серию, но потом понял, что с DVD получится намного лучше. Пожалуй это первый случай в моей практике, когда DVDRip лучше, чем HDTVRip. Картина у конкурента рассыпается в движении полностью, вторая пара скринов сравнения - это вообще ключевые кадры и даже на них есть множество артефактов. Изображения как бы стеклянные, такое впечатление, что хотели повысить резкость, а получилось очень скверно. Битрейт у нас одинаковый, звук только разный, там 2 канала 192 кбпс, у меня 6 каналов и 384 кбпс.
Плюс цитата из MI конкурента:

ЦитатаКто-то писал:
Соотношение сторон : 5:4
Соотношение сторон в оригинале : 16:9
Анаморф то тут было зачем делать?

Смотрите сами:

http://screenshotcomparison.com/comparison/24476



   Похожие торренты   Торрент   Размер 
В этой теме нет новых непрочитанных сообщений. Под прикрытием [01-12 из 12] (2012) DVDRip-AVC от Youtracker | лицензия

17 | 3

9.37 ГБ

В этой теме нет новых непрочитанных сообщений. Под прикрытием [01-12 из 12] (2012) DVD9 R5 от Youtracker | лицензия

1 | 7

15.68 ГБ

В этой теме нет новых непрочитанных сообщений. Агент под прикрытием / So Undercover (2012) BDRip 1080p от Youtracker | Лицензия

12 | 5

7.55 ГБ

В этой теме нет новых непрочитанных сообщений. Агент под прикрытием / So Undercover (2012) HDRip | Лицензия

342 | 14

1.46 ГБ

В этой теме нет новых непрочитанных сообщений. Агент под прикрытием / So Undercover (2012) HDRip от Scarabey | D | Лицензия

8 | 4

742.93 МБ

В этой теме нет новых непрочитанных сообщений. Агент под прикрытием / So Undercover (2012) BDRip 1080p | Лицензия

4 | 4

6.85 ГБ

В этой теме нет новых непрочитанных сообщений. Агент под прикрытием / So Undercover (2012) HDRip от Scarabey | D | Лицензия

20 | 2

1.45 ГБ




Вы не можете начинать темы
Вы не можете отвечать на сообщения
Вы не можете редактировать свои сообщения
Вы не можете удалять свои сообщения
Вы не можете добавлять вложения

Перейти:  
Для Мосгорсуда, Роскомнадзора и рекламодателей: mosgorsud-torrent[собачка]yandex.ru
 Вход
ppkBB3cker v.2 © 2008-2014 @ PPK
[ Time : 0.045s | 15 Queries | GZIP : Off ]

cron