img image001 image001 image001 image001 image001 image001 image001 image001 image001 image001 image001 image001 image001 image001 image001

Planets Sun Sun Sun
Статистика раздачи
Автор: Снежана | Размер: 9.37 ГБ | Добавлен: 25 июл 2013
Раздают: 17    Качают: 3
Скачать торрент
Скачать торрент
Описание торрента

СообщениеДобавлено: 25 июл 2013 

#77
Год выпуска: 2012
Выпущено: Россия / ДТ Продакшн

Жанр: боевик
Продолжительность: ~ 00:51:00 / серия

Перевод: не требуется
Оригинальная аудиодорожка: русский
Субтитры: нет

Режиссер: Тимур Алпатов

В ролях: Сергей Газаров, Владимир Яглыч, Гурам Баблишвили, Владислав Котлярский, Софья Торосян, Максим Важов, Карина Разумовская, Михаил Солодко, Эдуард Рябинин, Дмитрий Проданов...

Описание: Олегу Резвову не очень-то посчастливилось пожить своей жизнью. Сначала «по малолетке» отсидел в тюрьме за преступление, которое не совершал. Потом, после армии, поступил в ФСБ, где его жизнью, в общем-то, распоряжаются старшие по званию. И вот, новое задание: под видом бывшего уголовника внедриться в преступный бизнес майкопской группировки и обезвредить её. Внедриться — это значит полностью жить чужой жизнью и, практически, стать другим человеком. Но рядом бурлит обычная прекрасная жизнь, полная людей, верящих в добро, чистоту, любовь, где есть дом, семья, дети… Сложную операцию готовят и прикрывают многие люди, но свою, обычную жизнь, нельзя прожить под прикрытием. В этой жизни его хотят видеть самим собой, таким, какой он есть. Особенно те, кто его любит.






Качество: DVDRip-AVC (2xDVD9 R5)
Формат: MKV

Видео: 720x432@762x432 (16:9), 25.000 fps, H264 ~ 1806 kbps avg, 0.232 bit/pixel
Аудио: 48 kHz, Dolby AC3 5.1 384 kbps, русский

Раздача от:
Общее
Полное имя : Pod.prikrytiem.2012.O.DVDRip-AVC_[Youtracker]_by_avproh\01.mkv
Формат : Matroska
Версия формата : Version 4 / Version 2
Размер файла : 801 Мбайт
Продолжительность : 51 м.
Общий поток : 2190 Кбит/сек
Дата кодирования : UTC 2013-05-20 03:38:59
Программа кодирования : mkvmerge v6.1.0 ('Old Devil') built on Mar 2 2013 14:32:37
Библиотека кодирования : libebml v1.3.0 + libmatroska v1.4.0

Видео
Идентификатор : 1
Формат : AVC
Формат/Информация : Advanced Video Codec
Профиль формата : High@L4.1
Параметр CABAC формата : Да
Параметр ReFrames формата : 11 кадров
Идентификатор кодека : V_MPEG4/ISO/AVC
Продолжительность : 51 м.
Битрейт : 1806 Кбит/сек
Ширина : 720 пикселей
Высота : 432 пикселя
Соотношение сторон : 16:9
Соотношение сторон в оригинале : 16:9
Режим частоты кадров : Постоянный
Частота кадров : 25,000 кадров/сек
Цветовое пространство : YUV
Субдискретизация насыщенности : 4:2:0
Битовая глубина : 8 бит
Тип развёртки : Прогрессивная
Бит/(Пиксели*Кадры) : 0.232
Размер потока : 644 Мбайт (80%)
Библиотека кодирования : x264 core 130 r2273 b3065e6
Настройки программы : cabac=1 / ref=11 / deblock=1:-2:-1 / analyse=0x3:0x113 / me=umh / subme=9 / psy=1 / psy_rd=1.00:0.20 / mixed_ref=1 / me_range=32 / chroma_me=1 / trellis=1 / 8x8dct=1 / cqm=0 / deadzone=21,11 / fast_pskip=0 / chroma_qp_offset=-3 / threads=9 / lookahead_threads=1 / sliced_threads=0 / nr=0 / decimate=0 / interlaced=0 / bluray_compat=0 / constrained_intra=0 / bframes=8 / b_pyramid=2 / b_adapt=2 / b_bias=0 / direct=3 / weightb=1 / open_gop=0 / weightp=2 / keyint=250 / keyint_min=25 / scenecut=40 / intra_refresh=0 / rc_lookahead=60 / rc=2pass / mbtree=1 / bitrate=1806 / ratetol=1.0 / qcomp=0.60 / qpmin=0 / qpmax=69 / qpstep=4 / cplxblur=20.0 / qblur=0.5 / ip_ratio=1.40 / aq=1:1.00
Язык : Russian
Default : Да
Forced : Нет

Аудио
Идентификатор : 2
Формат : AC-3
Формат/Информация : Audio Coding 3
Расширение режима : CM (complete main)
Параметр Endianness формата : Big
Идентификатор кодека : A_AC3
Продолжительность : 51 м.
Вид битрейта : Постоянный
Битрейт : 384 Кбит/сек
Каналы : 6 каналов
Расположение каналов : Front: L C R, Side: L R, LFE
Частота : 48,0 КГц
Битовая глубина : 16 бит
Метод сжатия : С потерями
Размер потока : 140 Мбайт (18%)
Язык : Russian
Default : Да
Forced : Нет





   Похожие торренты   Торрент   Размер 
В этой теме нет новых непрочитанных сообщений. Под прикрытием [01-12 из 12] (2012) DVDRip от Youtracker | лицензия

82 | 17

9.39 ГБ

В этой теме нет новых непрочитанных сообщений. Под прикрытием [01-12 из 12] (2012) DVD9 R5 от Youtracker | лицензия

1 | 7

15.68 ГБ

В этой теме нет новых непрочитанных сообщений. Агент под прикрытием / So Undercover (2012) BDRip 1080p от Youtracker | Лицензия

12 | 5

7.55 ГБ

В этой теме нет новых непрочитанных сообщений. Агент под прикрытием / So Undercover (2012) HDRip | Лицензия

342 | 14

1.46 ГБ

В этой теме нет новых непрочитанных сообщений. Агент под прикрытием / So Undercover (2012) HDRip от Scarabey | D | Лицензия

8 | 4

742.93 МБ

В этой теме нет новых непрочитанных сообщений. Агент под прикрытием / So Undercover (2012) BDRip 1080p | Лицензия

4 | 4

6.85 ГБ

В этой теме нет новых непрочитанных сообщений. Агент под прикрытием / So Undercover (2012) BDRip 720p | Лицензия

3 | 4

5.26 ГБ




Вы не можете начинать темы
Вы не можете отвечать на сообщения
Вы не можете редактировать свои сообщения
Вы не можете удалять свои сообщения
Вы не можете добавлять вложения

Перейти:  
Для Мосгорсуда, Роскомнадзора и рекламодателей: mosgorsud-torrent[собачка]yandex.ru
 Вход
ppkBB3cker v.2 © 2008-2014 @ PPK
[ Time : 2.088s | 15 Queries | GZIP : Off ]

Торрент трекер RUTOR.IN, Не можете зайти на rutor.org? Какой новый адрес рутор? Какое зеркало рутор? Не работает rutor.org и зеркала? Тогда наш торрент специально для вас. Rutor.in неофициальное зеркало rutor. В случае если у Вас заблокирован rutor или вдруг Вы не можете на него зайти, то Вы без труда сможете скачать бесплатно и без рекламы последние новинки кино, игр, сериалов и прочего у нас, на Rutor.in. Не нужно использовать прокси, чтобы зайти на рутор, достаточно воспользоваться нашим ресурсом. Все новые фильмы, игры, сериалы, книги и музыка за 2013 и 2014 годы через торрент бесплатно. Скачивайте фильмы в хорошем качестве, игры для пк, xbox, playstation без регистрации. У нас вы найдете новые Зарубежные сериалы и Русские сериалы 2013, 2014, 2015 годов. Оставайтесь с нами, качайте любимые фильмы, игры, сериалы, книги и музыку.
cron