img image001 image001 image001 image001 image001 image001 image001 image001 image001 image001 image001 image001 image001 image001 image001

Planets Sun Sun Sun
Статистика раздачи
Автор: Снежана | Размер: 14.06 ГБ | Добавлен: 25 июл 2013
Раздают: 5    Качают: 2
Скачать торрент
Скачать торрент
Описание торрента

СообщениеДобавлено: 25 июл 2013 



Информация о фильме
Название: Друзья
Оригинальное название: Friends
Год выхода: 1997-1998
Жанр: Sitcom
Режиссер: David Crane, Marta Kauffman
В ролях: Jennifer Aniston, Courteney Cox Arquette, Lisa Kudrow, Matt LeBlanc, Matthew Perry, David Schwimmer

О фильме:
Главные герои — шестеро друзей — Рейчел, Моника, Фиби, Джоуи, Чендлер и Росс. Три девушки и три парня, которые дружат, живут по соседству, вместе убивают время и противостоят жестокой реальности, делятся своими секретами и иногда очень сильно влюбляются.
Сериал признан одним из лучших комедийных сериалов в истории американского телевидения и стал одним из наиболее заметных проектов 1990-х годов. Сама постановка и творческая группа получили множество наград, в том числе шесть премий «Эмми» и премию «Золотой глобус».

Страна: США
Студия: Канал NBC
Продолжительность: 24 x ∼23мин
Перевод: Русский - Профессиональный (многоголосый, закадровый)

Файл
Формат: m4v
Кодек: H.264
Качество: BDRip-AVC
Видео: 1024x576 (16:9), ∼3100kbps, 23,976fps
Звук: AAC, 2 channels, 48.0 KHz, 160kbps VBR
Аудио 1: Русский - профессиональный многоголосый закадровый
Аудио 2: Украинский - профессиональный многоголосый закадровый
Аудио 3: Английский - оригинал
Аудио 4: Французский - дублированный
Субтитры: Английские, французские, испанские, португальские, датские, финские, норвежские, шведские, нидерландские
Метатэги: Прописаны
Навигация по главам: есть

Раздача будет полезна пользователям iOS и OS X платформ.
При просмотре на Windows рекомендую пользоваться iTunes или VLC media player.


1 серия

x264 [info]: frame I:316 Avg QP:14.78 size:102086 PSNR Mean Y:48.64 U:51.80 V:53.07 Avg:49.55 Global:48.77
x264 [info]: frame P:6707 Avg QP:17.11 size: 36459 PSNR Mean Y:46.99 U:50.95 V:51.91 Avg:47.93 Global:46.77
x264 [info]: frame B:25715 Avg QP:20.46 size: 11476 PSNR Mean Y:44.05 U:49.68 V:50.72 Avg:45.29 Global:44.99
x264 [info]: consecutive B-frames: 1.8% 0.7% 3.3% 21.9% 22.6% 45.4% 4.3%
x264 [info]: mb I I16..4: 6.7% 71.8% 21.5%
x264 [info]: mb P I16..4: 1.3% 11.2% 2.9% P16..4: 31.6% 28.7% 16.7% 0.0% 0.0% skip: 7.6%
x264 [info]: mb B I16..4: 0.1% 1.7% 0.3% B16..8: 38.0% 10.8% 3.5% direct: 6.4% skip:39.1% L0:41.2% L1:44.4% BI:14.4%
x264 [info]: 8x8 transform intra:74.9% inter:57.4%
x264 [info]: coded y,uvDC,uvAC intra: 92.2% 76.0% 48.8% inter: 31.9% 19.6% 2.3%
x264 [info]: i16 v,h,dc,p: 46% 12% 7% 35%
x264 [info]: i8 v,h,dc,ddl,ddr,vr,hd,vl,hu: 12% 9% 5% 9% 14% 14% 13% 12% 12%
x264 [info]: i4 v,h,dc,ddl,ddr,vr,hd,vl,hu: 10% 8% 3% 9% 15% 15% 14% 13% 14%
x264 [info]: i8c dc,h,v,p: 36% 26% 24% 14%
x264 [info]: Weighted P-Frames: Y:2.2% UV:1.4%
x264 [info]: ref P L0: 47.0% 10.8% 16.2% 7.8% 6.0% 4.5% 3.6% 2.3% 1.7% 0.1% 0.0%
x264 [info]: ref B L0: 79.2% 10.8% 4.1% 2.2% 1.6% 1.2% 0.7% 0.3%
x264 [info]: ref B L1: 95.1% 4.9%
x264 [info]: SSIM Mean Y:0.9826613 (17.610db)
x264 [info]: PSNR Mean Y:44.694 U:49.958 V:50.990 Avg:45.872 Global:45.326 kb/s:3350.72

General
Format : MPEG-4
Codec ID : M4V
File size : 652 MiB
Duration : 22mn 46s
Overall bit rate mode : Variable
Overall bit rate : 4 003 Kbps
Movie name : The One With The Jellyfish
Part/Position : 4
Track name/Position : 1
Track name/Total : 24
Performer : Friends
Genre : Sitcom
Recorded date : 1997-09-25
Encoded date : UTC 2013-05-15 16:17:09
Tagged date : UTC 2013-05-15 16:21:18
Cover : Yes
tvsh : Friends
tven : 466601
tvsn : 4
tves : 1
sosn : Friends
desc : Ross chooses between Rachel and his bald-headed girlfriend Bonnie. Phoebe struggles to deal with the revelation that her mother's friend is actually her mother. Monica gets stung by a jellyfish, forcing Chandler and Joey to step up to the plate in order to relieve her pain.
ldes : Ross chooses between Rachel and his bald-headed girlfriend Bonnie. Phoebe struggles to deal with the revelation that her mother's friend is actually her mother. Monica gets stung by a jellyfish, forcing Chandler and Joey to step up to the plate in order to relieve her pain.
hdvd : 1
stik : 10
rtng : 0

Video #1
ID : 1
Format : AVC
Format/Info : Advanced Video Codec
Format profile : High@L4.0
Format settings, CABAC : Yes
Format settings, ReFrames : 9 frames
Codec ID : avc1
Codec ID/Info : Advanced Video Coding
Duration : 22mn 45s
Bit rate mode : Variable
Bit rate : 3 350 Kbps
Width : 1 024 pixels
Height : 576 pixels
Display aspect ratio : 16:9
Frame rate mode : Variable
Frame rate : 23.976 fps
Minimum frame rate : 23.810 fps
Maximum frame rate : 24.390 fps
Color space : YUV
Chroma subsampling : 4:2:0
Bit depth : 8 bits
Scan type : Progressive
Bits/(Pixel*Frame) : 0.237
Stream size : 545 MiB (84%)
Writing library : x264 core 120
Encoding settings : cabac=1 / ref=9 / deblock=1:0:0 / analyse=0x3:0x113 / me=umh / subme=9 / psy=1 / psy_rd=1.00:0.00 / mixed_ref=1 / me_range=32 / chroma_me=1 / trellis=1 / 8x8dct=1 / cqm=0 / deadzone=21,11 / fast_pskip=1 / chroma_qp_offset=-2 / threads=6 / sliced_threads=0 / nr=0 / decimate=1 / interlaced=0 / bluray_compat=0 / constrained_intra=0 / bframes=6 / b_pyramid=2 / b_adapt=2 / b_bias=0 / direct=1 / weightb=1 / open_gop=0 / weightp=2 / keyint=240 / keyint_min=24 / scenecut=40 / intra_refresh=0 / rc_lookahead=40 / rc=2pass / mbtree=1 / bitrate=3350 / ratetol=1.0 / qcomp=0.60 / qpmin=3 / qpmax=69 / qpstep=4 / cplxblur=20.0 / qblur=0.5 / ip_ratio=1.40 / aq=1:1.00
Language : English
Encoded date : UTC 2013-05-15 16:17:09
Tagged date : UTC 2013-05-15 16:20:33
Color primaries : BT.709
Transfer characteristics : BT.709
Matrix coefficients : BT.709

Video #2
ID : 17
Format : JPEG
Codec ID : jpeg
Duration : 22mn 45s
Bit rate mode : Variable
Bit rate : 1 056 bps
Width : 640 pixels
Height : 360 pixels
Display aspect ratio : 16:9
Frame rate mode : Variable
Frame rate : 0.003 fps
Minimum frame rate : 0.002 fps
Maximum frame rate : 0.025 fps
Color space : YUV
Chroma subsampling : 4:2:0
Bit depth : 8 bits
Compression mode : Lossy
Bits/(Pixel*Frame) : 1.528
Stream size : 172 KiB (0%)
Language : English
Encoded date : UTC 2013-05-15 16:20:34
Tagged date : UTC 2013-05-15 16:20:34

Audio #1
ID : 2
Format : AAC
Format/Info : Advanced Audio Codec
Format profile : LC
Codec ID : 40
Duration : 22mn 46s
Bit rate mode : Variable
Bit rate : 160 Kbps
Maximum bit rate : 321 Kbps
Channel(s) : 2 channels
Channel positions : Front: L R
Sampling rate : 48.0 KHz
Compression mode : Lossy
Delay relative to video : 84ms
Stream size : 26.0 MiB (4%)
Language : Russian
Encoded date : UTC 2013-05-15 16:17:09
Tagged date : UTC 2013-05-15 16:20:33

Audio #2
ID : 3
Format : AAC
Format/Info : Advanced Audio Codec
Format profile : LC
Codec ID : 40
Duration : 22mn 36s
Bit rate mode : Variable
Bit rate : 160 Kbps
Maximum bit rate : 198 Kbps
Channel(s) : 2 channels
Channel positions : Front: L R
Sampling rate : 48.0 KHz
Compression mode : Lossy
Delay relative to video : 84ms
Stream size : 25.9 MiB (4%)
Language : Ukrainian
Encoded date : UTC 2013-05-15 16:17:09
Tagged date : UTC 2013-05-15 16:20:33

Audio #3
ID : 4
Format : AAC
Format/Info : Advanced Audio Codec
Format profile : LC
Codec ID : 40
Duration : 22mn 46s
Bit rate mode : Variable
Bit rate : 160 Kbps
Maximum bit rate : 347 Kbps
Channel(s) : 2 channels
Channel positions : Front: L R
Sampling rate : 48.0 KHz
Compression mode : Lossy
Delay relative to video : 84ms
Stream size : 26.0 MiB (4%)
Language : English
Encoded date : UTC 2013-05-15 16:17:09
Tagged date : UTC 2013-05-15 16:20:33

Audio #4
ID : 5
Format : AAC
Format/Info : Advanced Audio Codec
Format profile : LC
Codec ID : 40
Duration : 22mn 46s
Bit rate mode : Variable
Bit rate : 160 Kbps
Maximum bit rate : 327 Kbps
Channel(s) : 2 channels
Channel positions : Front: L R
Sampling rate : 48.0 KHz
Compression mode : Lossy
Delay relative to video : 84ms
Stream size : 26.0 MiB (4%)
Language : French
Encoded date : UTC 2013-05-15 16:17:09
Tagged date : UTC 2013-05-15 16:20:33

Text #1
ID : 6
Format : Timed text
Muxing mode : sbtl
Codec ID : tx3g
Duration : 22mn 42s
Bit rate mode : Variable
Bit rate : 80 bps
Delay relative to video : 84ms
Stream size : 13.3 KiB (0%)
Language : English
Encoded date : UTC 2013-05-15 16:17:09
Tagged date : UTC 2013-05-15 16:20:33

Text #2
ID : 7
Format : Timed text
Muxing mode : sbtl
Codec ID : tx3g
Duration : 22mn 42s
Bit rate mode : Variable
Bit rate : 61 bps
Delay relative to video : 84ms
Stream size : 10.2 KiB (0%)
Language : French
Encoded date : UTC 2013-05-15 16:17:09
Tagged date : UTC 2013-05-15 16:20:33

Text #3
ID : 8
Format : Timed text
Muxing mode : sbtl
Codec ID : tx3g
Duration : 22mn 42s
Bit rate mode : Variable
Bit rate : 90 bps
Delay relative to video : 84ms
Stream size : 14.9 KiB (0%)
Language : German
Encoded date : UTC 2013-05-15 16:17:09
Tagged date : UTC 2013-05-15 16:20:33

Text #4
ID : 9
Format : Timed text
Muxing mode : sbtl
Codec ID : tx3g
Duration : 22mn 42s
Bit rate mode : Variable
Bit rate : 62 bps
Delay relative to video : 84ms
Stream size : 10.3 KiB (0%)
Language : Spanish
Encoded date : UTC 2013-05-15 16:17:09
Tagged date : UTC 2013-05-15 16:20:33

Text #5
ID : 10
Format : Timed text
Muxing mode : sbtl
Codec ID : tx3g
Duration : 22mn 42s
Bit rate mode : Variable
Bit rate : 61 bps
Delay relative to video : 84ms
Stream size : 10.1 KiB (0%)
Language : Spanish
Encoded date : UTC 2013-05-15 16:17:09
Tagged date : UTC 2013-05-15 16:20:33

Text #6
ID : 11
Format : Timed text
Muxing mode : sbtl
Codec ID : tx3g
Duration : 22mn 42s
Bit rate mode : Variable
Bit rate : 66 bps
Delay relative to video : 84ms
Stream size : 11.0 KiB (0%)
Language : Portuguese
Encoded date : UTC 2013-05-15 16:17:09
Tagged date : UTC 2013-05-15 16:20:33

Text #7
ID : 12
Format : Timed text
Muxing mode : sbtl
Codec ID : tx3g
Duration : 22mn 42s
Bit rate mode : Variable
Bit rate : 59 bps
Delay relative to video : 84ms
Stream size : 9.76 KiB (0%)
Language : Danish
Encoded date : UTC 2013-05-15 16:17:09
Tagged date : UTC 2013-05-15 16:20:33

Text #8
ID : 13
Format : Timed text
Muxing mode : sbtl
Codec ID : tx3g
Duration : 22mn 42s
Bit rate mode : Variable
Bit rate : 57 bps
Delay relative to video : 84ms
Stream size : 9.53 KiB (0%)
Language : Finnish
Encoded date : UTC 2013-05-15 16:17:09
Tagged date : UTC 2013-05-15 16:20:33

Text #9
ID : 14
Format : Timed text
Muxing mode : sbtl
Codec ID : tx3g
Duration : 22mn 42s
Bit rate mode : Variable
Bit rate : 58 bps
Delay relative to video : 84ms
Stream size : 9.58 KiB (0%)
Language : Norwegian
Encoded date : UTC 2013-05-15 16:17:09
Tagged date : UTC 2013-05-15 16:20:33

Text #10
ID : 15
Format : Timed text
Muxing mode : sbtl
Codec ID : tx3g
Duration : 22mn 42s
Bit rate mode : Variable
Bit rate : 56 bps
Delay relative to video : 84ms
Stream size : 9.28 KiB (0%)
Language : Swedish
Encoded date : UTC 2013-05-15 16:17:09
Tagged date : UTC 2013-05-15 16:20:33

Text #11
ID : 16
Format : Apple text
Codec ID : text
Duration : 22mn 45s
Bit rate mode : Constant
Bit rate : 1 bps
Delay relative to video : 84ms
Stream size : 92.0 Bytes (0%)
Language : English
Encoded date : UTC 2013-05-15 16:20:33
Tagged date : UTC 2013-05-15 16:20:33

Menu
00:00:00.000 : Chapter 1
00:02:53.464 : Chapter 2
00:11:26.602 : Chapter 3
00:22:04.781 : Chapter 4



   Похожие торренты   Торрент   Размер 
В этой теме нет новых непрочитанных сообщений. Друзья / Friends [S03] (1996-1997) BDRip-AVC | iPad

10 | 5

16.12 ГБ

В этой теме нет новых непрочитанных сообщений. Друзья / Friends [S04] (1997-1998) BDRip-AVC от HQCLUB

133 | 36

10.63 ГБ

В этой теме нет новых непрочитанных сообщений. Друзья / Friends [S04] (1997-1998) HDTVRip-AVC

25 | 10

8.83 ГБ

В этой теме нет новых непрочитанных сообщений. Друзья / Friends [S04] (1997-1998) HDTVRip 720p

37 | 11

22.5 ГБ

В этой теме нет новых непрочитанных сообщений. Друзья / Friends [S08] (2001-2002) BDRip-AVC | iPad

6 | 3

12.71 ГБ

В этой теме нет новых непрочитанных сообщений. Друзья / Friends [S02] (1995-1996) BDRip-AVC | iPad

16 | 5

14.87 ГБ

В этой теме нет новых непрочитанных сообщений. Друзья / Friends [S09] (2002-2003) BDRip-AVC | iPad

9 | 11

13.74 ГБ




Вы не можете начинать темы
Вы не можете отвечать на сообщения
Вы не можете редактировать свои сообщения
Вы не можете удалять свои сообщения
Вы не можете добавлять вложения

Перейти:  
Для Мосгорсуда, Роскомнадзора и рекламодателей: mosgorsud-torrent[собачка]yandex.ru
 Вход
ppkBB3cker v.2 © 2008-2014 @ PPK
[ Time : 0.036s | 15 Queries | GZIP : Off ]

Торрент трекер RUTOR.IN, Не можете зайти на rutor.org? Какой новый адрес рутор? Какое зеркало рутор? Не работает rutor.org и зеркала? Тогда наш торрент специально для вас. Rutor.in неофициальное зеркало rutor. В случае если у Вас заблокирован rutor или вдруг Вы не можете на него зайти, то Вы без труда сможете скачать бесплатно и без рекламы последние новинки кино, игр, сериалов и прочего у нас, на Rutor.in. Не нужно использовать прокси, чтобы зайти на рутор, достаточно воспользоваться нашим ресурсом. Все новые фильмы, игры, сериалы, книги и музыка за 2013 и 2014 годы через торрент бесплатно. Скачивайте фильмы в хорошем качестве, игры для пк, xbox, playstation без регистрации. У нас вы найдете новые Зарубежные сериалы и Русские сериалы 2013, 2014, 2015 годов. Оставайтесь с нами, качайте любимые фильмы, игры, сериалы, книги и музыку.