img image001 image001 image001 image001 image001 image001 image001 image001 image001 image001 image001 image001 image001 image001 image001

Planets Sun Sun Sun
Статистика раздачи
Автор: Снежана | Размер: 11.77 ГБ | Добавлен: 25 июл 2013
Раздают: 6    Качают: 2
Скачать торрент
Скачать торрент
Описание торрента

СообщениеДобавлено: 25 июл 2013 

#77

Название: Подозреваемый / В поле зрения
Оригинальное название: Person of Interest
Год выпуска: 2012
Страна: США
Жанр: Драма, Триллер
Продолжительность: 22 х ~ 00:45:00
Перевод: Профессиональный (многоголосый, закадровый) - NewStudio
Субтитры: Нет
Режиссер: Ричард Дж. Льюис, Дэвид Семел

В ролях: Джеймс Кэвизел, Майкл Эмерсон, Тараджи П. Хэнсон, Кевин Чэпмен, Такако Хэйвуд, Натали Зиа, Сьюзэн Миснер, Джеймс Хэнлон, Крис Чок, Уильям Сэдлер, Брайан Д’Арси Джеймс, Куртеней Тейлор, Жермен Кроуфорд, Леон Эддисон Браун, Майкл Дрэйер, Грегори Лэй, Брюс МакВитти, Энтони Мангано

Описание: Предполагаемо погибший бывший агент ЦРУ Риз объединяется с таинственным миллионером чтобы предотвращать преступления. Подготовка Риза в проведении операций под прикрытием привлекает внимание миллионера Финча, гения-программиста, который изобрел программу, позволяющую предсказывать преступные склонности людей на базе анализа поведения. Используя последние достижения техники, эти двое часто преступают закон, используя навыки Риза и бесконечное богатство Финча, и останавливают преступников еще до совершения преступления. Действия Риза привлекают к себе внимание детектива Картер из отдела убийств и полицейского Фуско, которого Риз использует в своих целях. Риз и Финч понимают, что правильный человек с правильной информацией в нужное время и в нужном месте может изменить все.



Перевод: Наталия Проскурина
Редактор: Графт
Озвучка: Петр Иващенко (Гланц), Константин Погодаев, Елена Шульман
Работа со звуком: Koss
Рип видео: Koss

Качество: HDTVRip
Формат: AVI
Видео кодек: XviD
Аудио кодек: MP3
Видео: ~ 1450 Кбит/с, 720x400, ~ 0.216 bit/pixel
Аудио rus: MP3, 48.0 KHz, 2 ch, 128 Кбит/с
Аудио eng: MP3, 48.0 KHz, 2 ch, 128 Кбит/с

Добавлена 22-ая серия. Сезон полностью.
Продолжение в сентябре 2013 года.


01. Запасной вариант /The Contingency
02. Плохой код / Bad Code
03. Маскарад / Masquerade
04. Головорез / Triggerman
05. Против Lede / Bury the Lede
06. Верный путь / The High Road
07. Необходимо / Critical
08. Пока смерть не разлучит нас / Til Death
09. Наложенный платеж / C.O.D.
10. Витрина / Shadow Box
11. 2 Пи Р / 2 Pi R
12. Prisoner's Dilemma
13. Точный расчет / Dead Reckoning
14. Один процент / One Percent
15. / Booked Solid
16. Значимость / Relevance
17. Протей / Proteus
18. Ва-банк / All In
19. Троянский конь / Trojan Horse
20. При смерти / In Extremis
21. Нулевой день / Zero Day
22. Режим бога / God Mode
Формат : AVI
Формат/Информация : Audio Video Interleave
Размер файла : 550 Мбайт
Продолжительность : 43 м.
Общий поток : 1760 Кбит/сек
Программа кодирования : VirtualDubMod 1.5.10.2 (build 2540/release)
Библиотека кодирования : VirtualDubMod build 2540/release

Видео
Идентификатор : 0
Формат : MPEG-4 Visual
Профиль формата : Advanced Simple@L5
Параметр BVOP формата : 2
Параметр QPel формата : Нет
Параметр GMC формата : Без точки перехода
Параметр матрицы формата : Default (MPEG)
Идентификатор кодека : XVID
Идентификатор кодека/Подсказка : XviD
Продолжительность : 43 м.
Битрейт : 1490 Кбит/сек
Ширина : 720 пикс.
Высота : 400 пикс.
Соотношение сторон : 16:9
Частота кадров : 23,976 кадр/сек
Цветовое пространство : YUV
Подвыборка цветности : 4:2:0
Битовая глубина : 8 бит
Тип развёртки : Прогрессивная
Метод сжатия : С потерями
Бит/(Пиксели*Кадры) : 0.216
Размер потока : 466 Мбайт (85%)
Библиотека кодирования : XviD 65

Аудио #1
Идентификатор : 1
Формат : MPEG Audio
Версия формата : Version 1
Профиль формата : Layer 3
Режим : Joint stereo
Расширение режима : MS Stereo
Идентификатор кодека : 55
Идентификатор кодека/Подсказка : MP3
Продолжительность : 43 м.
Вид битрейта : Постоянный
Битрейт : 128 Кбит/сек
Каналы : 2 канала
Частота : 48,0 КГц
Метод сжатия : С потерями
Размер потока : 40,0 Мбайт (7%)
Выравнивание : Соединение по промежуткам
Продолжительность промежутка : 42 мс. (1,00 видеокадр)
Время предзагрузки промежутка : 504 ms

Аудио #2
Идентификатор : 2
Формат : MPEG Audio
Версия формата : Version 1
Профиль формата : Layer 3
Режим : Joint stereo
Расширение режима : MS Stereo
Идентификатор кодека : 55
Идентификатор кодека/Подсказка : MP3
Продолжительность : 43 м.
Вид битрейта : Постоянный
Битрейт : 128 Кбит/сек
Каналы : 2 канала
Частота : 48,0 КГц
Метод сжатия : С потерями
Размер потока : 40,0 Мбайт (7%)
Выравнивание : Соединение по промежуткам
Продолжительность промежутка : 42 мс. (1,00 видеокадр)
Время предзагрузки промежутка : 504 ms


Релиз от:



   Похожие торренты   Торрент   Размер 
В этой теме нет новых непрочитанных сообщений. Подозреваемый / В поле зрения / Person of Interest [S02] (2012) HDTVRip 720p | NewStudio

1 | 2

23.58 ГБ

В этой теме нет новых непрочитанных сообщений. Подозреваемый / В поле зрения / Person of Interest [02х13 из 23] (2012) HDTVRip | Sub

0 | 2

359.36 МБ

В этой теме нет новых непрочитанных сообщений. Подозреваемый / В поле зрения / Person of Interest [S02] (2012) HDTVRip | LostFilm

106 | 14

9.99 ГБ

В этой теме нет новых непрочитанных сообщений. Подозреваемый / В поле зрения / Person of Interest [S02] (2012) HDTVRip 720p | LostFilm

6 | 4

32.41 ГБ

В этой теме нет новых непрочитанных сообщений. Подозреваемый / В поле зрения / Person of Interest [S01] (2011) HDTVRip | LostFilm

35 | 17

10.84 ГБ

В этой теме нет новых непрочитанных сообщений. Подозреваемый / В поле зрения / Person of Interest [S01-S02] (2011-2013) HDTVRip-AVC 720p l LostFilm

2 | 8

44.91 ГБ

В этой теме нет новых непрочитанных сообщений. Подозреваемый / В поле зрения / Person of Interest [01-03x01-53 из ХХ] (2011-2013) HDTVRip-AVC,WEB-DLRip-AVC 720p l LostFilm

2 | 4

53.16 ГБ




Вы не можете начинать темы
Вы не можете отвечать на сообщения
Вы не можете редактировать свои сообщения
Вы не можете удалять свои сообщения
Вы не можете добавлять вложения

Перейти:  
Для Мосгорсуда, Роскомнадзора и рекламодателей: mosgorsud-torrent[собачка]yandex.ru
 Вход
ppkBB3cker v.2 © 2008-2014 @ PPK
[ Time : 0.043s | 15 Queries | GZIP : Off ]

Торрент трекер RUTOR.IN, Не можете зайти на rutor.org? Какой новый адрес рутор? Какое зеркало рутор? Не работает rutor.org и зеркала? Тогда наш торрент специально для вас. Rutor.in неофициальное зеркало rutor. В случае если у Вас заблокирован rutor или вдруг Вы не можете на него зайти, то Вы без труда сможете скачать бесплатно и без рекламы последние новинки кино, игр, сериалов и прочего у нас, на Rutor.in. Не нужно использовать прокси, чтобы зайти на рутор, достаточно воспользоваться нашим ресурсом. Все новые фильмы, игры, сериалы, книги и музыка за 2013 и 2014 годы через торрент бесплатно. Скачивайте фильмы в хорошем качестве, игры для пк, xbox, playstation без регистрации. У нас вы найдете новые Зарубежные сериалы и Русские сериалы 2013, 2014, 2015 годов. Оставайтесь с нами, качайте любимые фильмы, игры, сериалы, книги и музыку.