img image001 image001 image001 image001 image001 image001 image001 image001 image001 image001 image001 image001 image001 image001 image001

Planets Sun Sun Sun
Статистика раздачи
Автор: Снежана | Размер: 8.94 ГБ | Добавлен: 25 июл 2013
Раздают: 7    Качают: 9
Скачать торрент
Скачать торрент
Описание торрента

СообщениеДобавлено: 25 июл 2013 

#77

Информация о фильме
Название: Сообщество
Оригинальное название: Community
Год выхода: 2013
Жанр: комедия
Режиссер: Энтони Руссо, Дэн Хармон
В ролях: Джоэль МакХэйл, Джиллиан Джейкобс, Дэнни Пуди, Чеви Чейз, Элисон Бри, Ивет Николь Браун, Дональд Гловер, Кен Жонг, Джон Оливер, Патриция Белчер

О фильме:
Сериал рассказывает о студенческом сообществе, которое состоит из школьных лузеров, недавно разведенных домохозяек и пожилых людей, старающихся сохранить трезвый ум.



Выпущено: США, Krasnoff Foster Productions, Harmonius Claptrap, Russo Brothers, Universal Media Studios (UMS), Sony Pictures Television
Продолжительность: 13 x ~00:21:00
Перевод: Профессиональный (двухголосый, закадровый) - Кубик в Кубе

Рип: hintoz
Озвучка: Руслан Габидуллин и Ольга Кравцова
Перевод: El_Brujo

Файл
Качество: WEB-DL 720p (исходник WEB-DL 1080p)
Формат: MKV
Видео кодек: x264
Аудио кодек: AC3
Видео: 1280x720, 23.976 fps, 3 999 kbps, 0.181 bit/pixel
Аудио #1: 16 bit, 48 kHz, 192 kbps, 2 ch | Русский, двухголосый
Аудио #2: 16 bit, 48 kHz, 384 kbps, 5.1 | Английский, оригинальная дорожка

01. History 101
02. Paranormal Parentage
03. Conventions of Space and Time
04. Alternative History of the German Invasion
05. Cooperative Escapism In Familial Relations
06. Advanced Dоcumentary Filmmaking
07. Economics of Marine Biology
08. Herstory of Dance
09. Intro To Felt Surrogacy
10. Intro To Knots
11. Basic Human Anatomy
12. Heroic Origins
13. Advanced Introduction to Finality
Общее
Уникальный идентификатор : 237132436748759352794964621434813468793 (0xB2660BCB5FCEDA10B4DB4BC80BF0D079)
Полное имя : F:VideoUploadTV ShowsCommunity.s04.WEB-DL.720p.Kubik.v.KubeCommunity.s04e01.WEB-DL.720p.DVO.Kubik.v.Kube.mkv
Формат : Matroska
Версия формата : Version 4 / Version 2
Размер файла : 703 Мбайт
Продолжительность : 21 м.
Общий поток : 4579 Кбит/сек
Название фильма : Rip by hintoz
Дата кодирования : UTC 2013-03-02 22:10:07
Программа кодирования : mkvmerge v6.0.0 ('Coming Up For Air') built on Jan 20 2013 09:52:00
Библиотека кодирования : libebml v1.3.0 + libmatroska v1.4.0

Видео
Идентификатор : 1
Формат : AVC
Формат/Информация : Advanced Video Codec
Профиль формата : High@L3.1
Параметр CABAC формата : Да
Параметр ReFrames формата : 5 кадров
Идентификатор кодека : V_MPEG4/ISO/AVC
Продолжительность : 21 м.
Битрейт : 3999 Кбит/сек
Ширина : 1280 пикселей
Высота : 720 пикселей
Соотношение сторон : 16:9
Режим частоты кадров : Постоянный
Частота кадров : 23,976 кадра/сек
Цветовое пространство : YUV
Субдискретизация насыщенности : 4:2:0
Битовая глубина : 8 бит
Тип развёртки : Прогрессивная
Бит/(Пиксели*Кадры) : 0.181
Размер потока : 600 Мбайт (85%)
Библиотека кодирования : x264 core 129 r2245 bc13772
Настройки программы : cabac=1 / ref=5 / deblock=1:0:0 / analyse=0x3:0x133 / me=umh / subme=10 / psy=1 / psy_rd=1.00:0.15 / mixed_ref=1 / me_range=32 / chroma_me=1 / trellis=2 / 8x8dct=1 / cqm=0 / deadzone=21,11 / fast_pskip=0 / chroma_qp_offset=-3 / threads=12 / lookahead_threads=2 / sliced_threads=0 / nr=0 / decimate=0 / interlaced=0 / bluray_compat=0 / constrained_intra=0 / bframes=4 / b_pyramid=2 / b_adapt=2 / b_bias=0 / direct=3 / weightb=1 / open_gop=0 / weightp=2 / keyint=240 / keyint_min=23 / scenecut=40 / intra_refresh=0 / rc_lookahead=40 / rc=2pass / mbtree=1 / bitrate=3999 / ratetol=1.0 / qcomp=0.60 / qpmin=0 / qpmax=69 / qpstep=4 / cplxblur=20.0 / qblur=0.5 / ip_ratio=1.40 / aq=1:1.00
Язык : English
Default : Да
Forced : Нет

Аудио #1
Идентификатор : 2
Формат : AC-3
Формат/Информация : Audio Coding 3
Расширение режима : CM (complete main)
Параметр Endianness формата : Big
Идентификатор кодека : A_AC3
Продолжительность : 21 м.
Вид битрейта : Постоянный
Битрейт : 192 Кбит/сек
Каналы : 2 канала
Расположение каналов : Front: L R
Частота : 48,0 КГц
Битовая глубина : 16 бит
Метод сжатия : С потерями
Размер потока : 29,5 Мбайт (4%)
Заголовок : DVO Кубик в Кубе
Язык : Russian
Default : Да
Forced : Нет

Аудио #2
Идентификатор : 3
Формат : AC-3
Формат/Информация : Audio Coding 3
Расширение режима : CM (complete main)
Параметр Endianness формата : Big
Идентификатор кодека : A_AC3
Продолжительность : 21 м.
Вид битрейта : Постоянный
Битрейт : 384 Кбит/сек
Каналы : 6 каналов
Расположение каналов : Front: L C R, Side: L R, LFE
Частота : 48,0 КГц
Битовая глубина : 16 бит
Метод сжатия : С потерями
Размер потока : 58,9 Мбайт (8%)
Заголовок : Original
Язык : English
Default : Нет
Forced : Нет

Раздача ведётся путём добавления новых серий; при каждом добавлении создаётся новый торрент. Чтобы начать докачку новой серии, пользователям необходимо сделать следующее:
(1) остановить скачивание,
(2) удалить старый торрент у себя из клиента (старые серии удалять не надо),
(3) скачать новый торрент и запустить его у себя в клиенте вместо старого, при этом указать клиенту путь в старую папку куда и должно происходить скачивание новых серий.

Ваш клиент при этом должен произвести хеширование (проверку) старой папки (если не производит сам - помогите ему сделать это), и будет докачивать только те серии которых у вас ещё нет. Старые серии при этом не удаляются, а продолжают раздаваться!

Eсли вы уже удалили старые серии, то предотвратить повторную закачку старых серий можно, отжав галочку в соответствующих местах при запуске нового торрента. По возможности, желательно не удалять старые серии как можно дольше чтобы релизёр не столько продолжал раздавать старые серии, а смог сконцентрироваться на новых.



   Похожие торренты   Торрент   Размер 
В этой теме нет новых непрочитанных сообщений. Сообщество / Community [S04] (2013) WEB-DL 1080p | Кубик в Кубе

6 | 5

11.29 ГБ

В этой теме нет новых непрочитанных сообщений. Сообщество / Community [S04] (2013) WEB-DLRip-AVC | Кубик в Кубе

86 | 11

5.16 ГБ

В этой теме нет новых непрочитанных сообщений. Сообщество / Community [S03] (2011) WEB-DL 720p | Кубик в Кубе

11 | 12

14.97 ГБ

В этой теме нет новых непрочитанных сообщений. Сообщество / Community [S01-05] (2009-2014) WEB-DL 720p | Кубик в Кубе

24 | 157

67.21 ГБ

В этой теме нет новых непрочитанных сообщений. Сообщество / Community [S02] (2010-2011) WEB-DL 720p от Кубик в Кубе

6 | 16

16.39 ГБ

В этой теме нет новых непрочитанных сообщений. Сообщество / Community [S01] (2009-2010) WEB-DL 720p от Кубик в Кубе

23 | 12

17.4 ГБ

В этой теме нет новых непрочитанных сообщений. Сообщество / Community [S01-06] (2009-2015) WEB-DL 720p | Кубик в Кубе

2 | 50

76.46 ГБ




Вы не можете начинать темы
Вы не можете отвечать на сообщения
Вы не можете редактировать свои сообщения
Вы не можете удалять свои сообщения
Вы не можете добавлять вложения

Перейти:  
Для Мосгорсуда, Роскомнадзора и рекламодателей: mosgorsud-torrent[собачка]yandex.ru
 Вход
ppkBB3cker v.2 © 2008-2014 @ PPK
[ Time : 0.074s | 15 Queries | GZIP : Off ]

cron