img image001 image001 image001 image001 image001 image001 image001 image001 image001 image001 image001 image001 image001 image001 image001

Planets Sun Sun Sun
Статистика раздачи
Автор: Снежана | Размер: 6.42 ГБ | Добавлен: 25 июл 2013
Раздают: 195    Качают: 21
Скачать торрент
Скачать торрент
Описание торрента

СообщениеДобавлено: 25 июл 2013 

Год выпуска: 2012
Производство: Россия, Пирамида
Жанр: детектив
Продолжительность: 4 х ~00:47:00
Субтитры: украинские

Режиссёр: Станислав Назиров

В ролях: Владимир Епифанцев, Анатолий Гущин, Кирилл Гребенщиков, Сергей Никоненко, Дарья Лузина, Владимир Скворцов, Михаил Богдасаров, Яна Гурьянова, Борис Шевченко, Екатерина Виноградова

Описание: На пешеходном переходе сбита беременная Ирина Варламова, с места происшествия скрывается дорогой спортивный автомобиль. Ирина умирает в больнице, ее восьмимесячная дочь попадает в реанимацию в критическом состоянии. Сергею Варламову, владельцу небольшой автотюнинговой компании, врачи советуют готовиться к худшему. Сергей в шоке - его жизнь разрушена. Сергея утешают друзья - братья Ванек и Санек Самарины. У всех троих общее автомобильно-криминальное прошлое: угоны, позже дорожные "подставы". Все трое гонщики, страстные любители автомобилей.


Сэмпл: http://multi-up.com/867671

Качество: DVB
Формат: MPEG-PS
Видео кодек: MPEG2
Аудио кодек: MP2
Видео: MPEG2 Video, 720x576 (4:3), 25 fps, 4473 Kbps, 0.43 bit/pixel
Аудио: MPEG Audio, 48 kHz, 2 ch, 192 kbps
General
Complete name : C:Подстава_Серии 1-4 из 4_DVBПодстава_serija 1_2_2012.mpg
Format : MPEG-PS
File size : 3.21 GiB
Duration : 1h 36mn
Overall bit rate mode : Variable
Overall bit rate : 4 760 Kbps

Video
ID : 224 (0xE0)
Format : MPEG Video
Format version : Version 2
Format profile : Main@Main
Format settings, BVOP : Yes
Format settings, Matrix : Custom
Format settings, GOP : Variable
Duration : 1h 36mn
Bit rate mode : Variable
Bit rate : 4 473 Kbps
Maximum bit rate : 15.0 Mbps
Width : 720 pixels
Height : 576 pixels
Display aspect ratio : 4:3
Frame rate : 25.000 fps
Standard : PAL
Color space : YUV
Chroma subsampling : 4:2:0
Bit depth : 8 bits
Scan type : Interlaced
Scan order : Top Field First
Compression mode : Lossy
Bits/(Pixel*Frame) : 0.431
Time code of first frame : 00:00:00:00
Time code source : Group of pictures header
Stream size : 3.02 GiB (94%)

Audio
ID : 192 (0xC0)
Format : MPEG Audio
Format version : Version 1
Format profile : Layer 2
Duration : 1h 36mn
Bit rate mode : Constant
Bit rate : 192 Kbps
Channel(s) : 1 channel
Sampling rate : 48.0 KHz
Compression mode : Lossy
Stream size : 133 MiB (4%)




   Похожие торренты   Торрент   Размер 
В этой теме нет новых непрочитанных сообщений. Подстава [01-04 из 04] (2012) IPTVRip от Files-x

767 | 106

2.15 ГБ

В этой теме нет новых непрочитанных сообщений. Подстава / Setup (2011) Blu-Ray

0 | 2

22.83 ГБ

В этой теме нет новых непрочитанных сообщений. Подстава / Уговор / The Set-Up (1949) DVDRip | 2xP

27 | 5

1.46 ГБ

В этой теме нет новых непрочитанных сообщений. Подстава / Setup (2011) BDRip-AVC | D

126 | 26

743.82 МБ

В этой теме нет новых непрочитанных сообщений. Подстава / SetUp (2011) DVD5

5 | 4

3.66 ГБ

В этой теме нет новых непрочитанных сообщений. Подстава / Bodywork (1999) DVDRip

1 | 2

1.46 ГБ

В этой теме нет новых непрочитанных сообщений. Подстава MTV / Punk'd [S4] (2005) IPTVRip

0 | 36

1.82 ГБ




Вы не можете начинать темы
Вы не можете отвечать на сообщения
Вы не можете редактировать свои сообщения
Вы не можете удалять свои сообщения
Вы не можете добавлять вложения

Перейти:  
Для Мосгорсуда, Роскомнадзора и рекламодателей: mosgorsud-torrent[собачка]yandex.ru
 Вход
ppkBB3cker v.2 © 2008-2014 @ PPK
[ Time : 1.972s | 15 Queries | GZIP : Off ]

Торрент трекер RUTOR.IN, Не можете зайти на rutor.org? Какой новый адрес рутор? Какое зеркало рутор? Не работает rutor.org и зеркала? Тогда наш торрент специально для вас. Rutor.in неофициальное зеркало rutor. В случае если у Вас заблокирован rutor или вдруг Вы не можете на него зайти, то Вы без труда сможете скачать бесплатно и без рекламы последние новинки кино, игр, сериалов и прочего у нас, на Rutor.in. Не нужно использовать прокси, чтобы зайти на рутор, достаточно воспользоваться нашим ресурсом. Все новые фильмы, игры, сериалы, книги и музыка за 2013 и 2014 годы через торрент бесплатно. Скачивайте фильмы в хорошем качестве, игры для пк, xbox, playstation без регистрации. У нас вы найдете новые Зарубежные сериалы и Русские сериалы 2013, 2014, 2015 годов. Оставайтесь с нами, качайте любимые фильмы, игры, сериалы, книги и музыку.
cron