img image001 image001 image001 image001 image001 image001 image001 image001 image001 image001 image001 image001 image001 image001 image001

Planets Sun Sun Sun
Статистика раздачи
Автор: Снежана | Размер: 16.97 ГБ | Добавлен: 26 июл 2013
Раздают: 7    Качают: 4
Скачать торрент
Скачать торрент
Описание торрента

СообщениеДобавлено: 26 июл 2013 

#77

Название: Вегас
Оригинальное название: Vegas
Год выпуска: 2012
Страна: США
Жанр: драма, криминальный
Продолжительность: 21 х ~ 00:45:00
Перевод: Профессиональный (двухголосый, закадровый) - NewStudio
Субтитры: Отсутствуют
Режиссер: Джеймс Мэнголд

В ролях: Деннис Куэйд, Майкл Чиклис, Джеймс Руссо, Джейсон О’Мара, Кэрри-Энн Мосс, Айми Гарсиа

Описание: Vegas — драма по реальным событиям из жизни бывшего шерифа Лас Вегаса Ральфа Лэмба, которому в 60-е пришлось навести порядок в этой мекке развлечений и азартных игр, которая вдруг появилась в пустыне. Ральф Лэмб хочет спокойно заниматься своим ранчо, но коррупция в Лас Вегасе мешает его простой жизни. Вспомнив, что Лэмб состоял в военной полиции во времена второй мировой, мэр города аппелирует к чувству долга Ральфа, попросив его расследовать убийство работника казино. Так Лэмб сталкивается с Винсентом Савино, безжалостным чикагским гангстером, который намерен подмять под себя Лас Вегас. В поддержании правопорядка Ральфу помогают два заместителя: его дипломатичный брат Джек и его обаятельный но импульсивный сын Диксон. Амбициозная помощница прокурора Кэтрин О’Коннел, которая выросла по соседству с ранчо Лэмбов, тоже поддерживает борьбу за правосудие. Два могущественных мужчины — Лэмб и Савино — вступают в отчаянный бой за контроль над зарождающимся оазисом, и ни один из них не собирается отступать.



Перевод: PtyZa
Озвучка: Gutta, Demonnn
Работа со звуком: Demonnn
Рип видео: Koss

Качество: WEB-DLRip
Формат: AVI
Видео: XviD, ~ 2000 Кбит/с, 720x400
Аудио rus: АС3, 6 ch, 384 Кбит/с
Аудио eng: АС3, 6 ch, 384 Кбит/с

Сезон полностью.

01. Пилот / Pilot
02. Игра на деньги / Money Plays
03. Все, что блестит / All That Glitters
04. (Не) законный / (Il)Legitimate
05. Солидные Граждане / Solid Citizens
06. Подлинник / The Real Thing
07. Негодные зерна / Bad Seeds
08. Изобличение / Exposure
09. Маскарад / Masquerade
10. Эстинто / Estinto
11. Племя Пайютов / Paiutes
12. Начиная с сегодняшнего дня / From This Day Forward
13. Поездка за город / Road Trip
14. Третий человек / The Third Man
15. Два сапога пара / Two of a Kind
16. Мелкая рыбка / Little Fish
17. Hollywood Ending
18. Scoundrels
19. От прошлого не уйти / Past Lives
20. Неоконченное дело / Unfinished Business
21. Сыны Невады / Sons of Nevada
Формат : AVI
Формат/Информация : Audio Video Interleave
Размер файла : 870 Мбайт
Продолжительность : 43 м.
Общий поток : 2778 Кбит/сек
Программа кодирования : VirtualDubMod 1.5.10.2 (build 2540/release)
Библиотека кодирования : VirtualDubMod build 2540/release

Видео
Идентификатор : 0
Формат : MPEG-4 Visual
Профиль формата : Advanced Simple@L5
Параметр BVOP формата : 1
Параметр QPel формата : Нет
Параметр GMC формата : Без точки перехода
Параметр матрицы формата : Default (MPEG)
Идентификатор кодека : XVID
Идентификатор кодека/Подсказка : XviD
Продолжительность : 43 м.
Битрейт : 1996 Кбит/сек
Ширина : 720 пикселей
Высота : 400 пикселей
Соотношение сторон : 16:9
Частота кадров : 23,976 кадра/сек
Цветовое пространство : YUV
Субдискретизация насыщенности : 4:2:0
Битовая глубина : 8 бит
Тип развёртки : Прогрессивная
Метод сжатия : С потерями
Бит/(Пиксели*Кадры) : 0.289
Размер потока : 625 Мбайт (72%)
Библиотека кодирования : XviD 65

Аудио #1
Идентификатор : 1
Формат : AC-3
Формат/Информация : Audio Coding 3
Расширение режима : CM (complete main)
Параметр Endianness формата : Big
Идентификатор кодека : 2000
Продолжительность : 43 м.
Вид битрейта : Постоянный
Битрейт : 384 Кбит/сек
Каналы : 6 каналов
Расположение каналов : Front: L C R, Side: L R, LFE
Частота : 48,0 КГц
Битовая глубина : 16 бит
Метод сжатия : С потерями
Размер потока : 120 Мбайт (14%)
Выравнивание : Разделение по промежуткам
Продолжительность промежутка : 42 мс. (1,00 видеокадр)
Время предзагрузки промежутка : 500 мс.

Аудио #2
Идентификатор : 2
Формат : AC-3
Формат/Информация : Audio Coding 3
Расширение режима : CM (complete main)
Параметр Endianness формата : Big
Идентификатор кодека : 2000
Продолжительность : 43 м.
Вид битрейта : Постоянный
Битрейт : 384 Кбит/сек
Каналы : 6 каналов
Расположение каналов : Front: L C R, Side: L R, LFE
Частота : 48,0 КГц
Битовая глубина : 16 бит
Метод сжатия : С потерями
Размер потока : 120 Мбайт (14%)
Выравнивание : Разделение по промежуткам
Продолжительность промежутка : 42 мс. (1,00 видеокадр)
Время предзагрузки промежутка : 500 мс.


Релиз от:



   Похожие торренты   Торрент   Размер 
В этой теме нет новых непрочитанных сообщений. Вегас / Vegas [S01] (2012) WEB-DLRip | NewStudio

0 | 3

11.28 ГБ

В этой теме нет новых непрочитанных сообщений. Вегас / Vegas [S01] (2012) WEB-DL 720р | NewStudio

77 | 6

30.07 ГБ

В этой теме нет новых непрочитанных сообщений. Вегас / Vegas [S01] (2012) WEB-DL 1080р | NewStudio

1 | 2

36.67 ГБ

В этой теме нет новых непрочитанных сообщений. Вегас / Vegas [S01] (2012-2013) WEB-DL 720p | Amedia, Первый канал, NewStudio

2 | 12

32.51 ГБ

В этой теме нет новых непрочитанных сообщений. Вегас / Vegas [01x01 из 21] (2012) WEB-DLRip

16 | 3

581.02 МБ

В этой теме нет новых непрочитанных сообщений. Вегас / Vegas [S01] (2012) WEB-DLRip | Первый канал

39 | 302

13.08 ГБ

В этой теме нет новых непрочитанных сообщений. Вегас / Vegas [01x01-17] (2012) WEB-DLRip | Amedia

0 | 1

12.32 ГБ




Вы не можете начинать темы
Вы не можете отвечать на сообщения
Вы не можете редактировать свои сообщения
Вы не можете удалять свои сообщения
Вы не можете добавлять вложения

Перейти:  
Для Мосгорсуда, Роскомнадзора и рекламодателей: mosgorsud-torrent[собачка]yandex.ru
 Вход
ppkBB3cker v.2 © 2008-2014 @ PPK
[ Time : 0.084s | 14 Queries | GZIP : Off ]

Торрент трекер RUTOR.IN, Не можете зайти на rutor.org? Какой новый адрес рутор? Какое зеркало рутор? Не работает rutor.org и зеркала? Тогда наш торрент специально для вас. Rutor.in неофициальное зеркало rutor. В случае если у Вас заблокирован rutor или вдруг Вы не можете на него зайти, то Вы без труда сможете скачать бесплатно и без рекламы последние новинки кино, игр, сериалов и прочего у нас, на Rutor.in. Не нужно использовать прокси, чтобы зайти на рутор, достаточно воспользоваться нашим ресурсом. Все новые фильмы, игры, сериалы, книги и музыка за 2013 и 2014 годы через торрент бесплатно. Скачивайте фильмы в хорошем качестве, игры для пк, xbox, playstation без регистрации. У нас вы найдете новые Зарубежные сериалы и Русские сериалы 2013, 2014, 2015 годов. Оставайтесь с нами, качайте любимые фильмы, игры, сериалы, книги и музыку.