img image001 image001 image001 image001 image001 image001 image001 image001 image001 image001 image001 image001 image001 image001 image001

Planets Sun Sun Sun
Статистика раздачи
Автор: Снежана | Размер: 11.78 ГБ | Добавлен: 25 июл 2013
Раздают: 27    Качают: 9
Скачать торрент
Скачать торрент
Описание торрента

СообщениеДобавлено: 25 июл 2013 





Бездна / Варламов









Год выпуска: 2013
Выпущено:: Россия, «Платформа Кино»
Жанр: Детектив, триллер
Продолжительность: 00:45:00
Серии: 1-16
Количество серий в сезоне: 16









Режиссер: Дмитрий Петрунь




В ролях: Илья Шакунов, Алёна Бабенко, Богдан Ступка, Анна Вартанян, Артём Семакин, Геннадий Смирнов, Артём Алексеев, Анна Дюкова, Вадим Волков, Сергей Кузнецов, Владимир Богданов, Майя Цыбисова, Олег Андреев, Сергей Уманов, Сергей Барковский, Оксана Базилевич, Анатолий Горин, Данила Шевченко, Дмитрий Поднозов, Вадим Гущин, Дмитрий Лысенков, Владимир Крылов, Алексей Митин, Артур Ваха, Родион Приходько, Андрей Терентьев, Светлана Кутузова-Терентьева, Владимир Кузнецов (IX), Хельга Филиппова, Ольга Калмыкова, Олег Степанов (II), Максим Студеновский, Игорь Николаев (II), Анастасия Рысева, Максим Митяшин




Александр Варламов работает в специальном подразделении милиции, которое занимается раскрытием серийных убийств и особо жестоких преступлений, совершенных людьми с отклонениями в психике. Когда обычные методы не работают, и следствие заходит в тупик, в игру вступают Варламов со своей группой. Изучая место преступления, улики, результаты судмедэкспертизы, они вычисляют психотип маньяка и стараются понять его истинные мотивы. Они вникают в каждый шаг преступника, и пытаются угадать его следующий шаг, чтобы предотвратить новое преступление.
При этом внешне очень успешный Варламов находится на пороге неизбежного кризиса сорока лет, неизбежной переоценки своей жизни. Он усиленно гонит мысли о том, что, сколько бы он ни работал — всех маньяков, к сожалению, все равно не поймаешь.
После раскрытия очередного дела, Варламову присваивают звание подполковника. Но в тот же день появляется свидетельство, что Варламов поймал не того человека. Его метод, на котором построена вся его работа и карьера, дал сбой. Варламов понимает, что кто-то его провоцирует, пытается вывести из себя. Но Александр не имеет права остановиться. Варламов забывает обо всем: для него становится самым важным поймать этого преступника. Спасая очередную жертву, он чуть не ловит его. Однако победа Варламова оказывается мнимой: прямо у него из-под носа, похищают его дочь. Варламов оказывается в отчаянном положении, он не знает, как поступить. Жена винит его в случившемся. Он и сам себя обвиняет. У Александра острое ощущение, что это дело рук не очередного обычного маньяка. Что его ребенка похитили, чтобы что-то дать ему понять и, что самое главное, этот похититель стоит к нему очень близко. Ближе, чем он может себе представить…





Качество: SATRip-AVC
Формат: MPEG-4
Видео кодек: H264
Видео: 2088Кбит/сек,720х480(16/9),в 25.000кадр/сек,AVC(NTSC)(Baseline@L3.0)(1Ref Frames)
Аудио кодек: AAC
Аудио Russian Dolby Digital 5.1: 313Кбит/сек,44.1КГц,6каналов,AAC,(Version4)(LC)





Звуковая дорожка сделана путем наложения чистого голоса озвучивателей на центральный канал оригинальной дорожки. Качество идентично звуковой дорожке.






General
Полное имя : D:С Е Р И А Л ЫБезднаBezdna_2013_E01_-_Е16_RUS[NTV_Russia]_DD5.1_x264_Nikolai.Baranov_SATRip-AVCBezdna_2013_E01_RUS[NTV_Russia]_DD5.1_x264_Nikolai.Baranov_SATRip-AVC.mp4
Формат : MPEG-4
Профиль формата : Base Media
Идентификатор кодека : isom
Размер файла : 778 MiB
Продолжительность : 45mn 13s
Режим общего битрейта : Variable
Общий поток : 2 405 Kbps
Дата кодирования : UTC 2013-05-23 17:39:22
Дата пометки : UTC 2013-05-23 17:39:22
Программа кодирования : Lavf51.12.1
Video
Идентификатор : 1
Формат : AVC
Формат/Информация : Advanced Video Codec
Профиль формата : Baseline@L3.0
Параметр CABAC формата : No
Параметр ReFrames формата : 1 frame
Параметр GOP формата : M=1, N=12
Идентификатор кодека : avc1
Идентификатор кодека/Информация : Advanced Video Coding
Продолжительность : 45mn 13s
Вид битрейта : Variable
Битрейт : 2 088 Kbps
Максимальный битрейт : 3 000 Kbps
Ширина : 720 pixels
Высота : 480 pixels
Соотношение сторон : 16:9
Соотношение сторон в оригинале : 16:9
Режим частоты кадров : Constant
Частота кадров : 25.000 fps
Частота кадров в оригинале : 24.000 fps
Стандарт вещания : NTSC
Цветовое пространство : YUV
Субдискретизация насыщенности : 4:2:0
Битовая глубина : 8 bits
Тип развёртки : Progressive
Бит/(Пиксели*Кадры) : 0.242
Размер потока : 675 MiB (87%)
Дата кодирования : UTC 2013-05-23 17:39:22
Дата пометки : UTC 2013-05-23 17:39:22
Audio
Идентификатор : 2
Формат : AAC
Формат/Информация : Advanced Audio Codec
Профиль формата : LC
Идентификатор кодека : 40
Продолжительность : 45mn 13s
Вид битрейта : Variable
Битрейт : 313 Kbps
Каналы : 6 channels
Расположение каналов : Front: L C R, Side: L R, LFE
Частота : 44.1 KHz
Метод сжатия : Lossy
Размер потока : 101 MiB (13%)
Дата кодирования : UTC 2013-05-23 17:39:22
Дата пометки : UTC 2013-05-23 17:39:22

















1. Открыть торрент
2. Снять галки с тех файлов торрента, которые мы не хотим закачивать. Оставляем только на нужных нам файлах (файле).
3. Нажать О.К.
В клиенте utorrent
Инструкция
1) Открыть торрент

2) Снять галки с тех файлов торрента, которые мы не хотим закачивать:
* либо вручную, снимая с каждого файла галку( скрин №1)
* либо, нажав кнопку "Снять метки (Select None)", сняв сразу со всех файлов(скрин №2)
№1

№2

Оставляем только на нужных нам файлах (файле).

3)Нажать О.К










Релиз от: Nikolai.Baranov
















   Похожие торренты   Торрент   Размер 
В этой теме нет новых непрочитанных сообщений. Бездна / Варламов [01-16 из 16] (2013) SATRip от Files-x

230 | 44

8.77 ГБ

В этой теме нет новых непрочитанных сообщений. Бездна / Варламов [01-16 из 16] (2013) DVB от Files-x

22 | 11

26.3 ГБ

В этой теме нет новых непрочитанных сообщений. Бездна / Варламов [01-16 из 16] (2012) WEBRip-AVC

0 | 242

9.6 ГБ

В этой теме нет новых непрочитанных сообщений. Алексей Варламов - Одиннадцатое сентября (2013) MP3

3 | 2

393.44 МБ

В этой теме нет новых непрочитанных сообщений. Алексей Варламов - Михаил Булгаков (2008) (2013) MP3

14 | 1

1.44 ГБ

В этой теме нет новых непрочитанных сообщений. Алексей Варламов - Андрей Платонов (2011) (2013) MP3

212 | 1

1.35 ГБ

В этой теме нет новых непрочитанных сообщений. Солнечная бездна (2011) SATRip by Alex Smit

2 | 3

631.39 МБ




Вы не можете начинать темы
Вы не можете отвечать на сообщения
Вы не можете редактировать свои сообщения
Вы не можете удалять свои сообщения
Вы не можете добавлять вложения

Перейти:  
Для Мосгорсуда, Роскомнадзора и рекламодателей: mosgorsud-torrent[собачка]yandex.ru
 Вход
ppkBB3cker v.2 © 2008-2014 @ PPK
[ Time : 0.063s | 15 Queries | GZIP : Off ]

cron