img image001 image001 image001 image001 image001 image001 image001 image001 image001 image001 image001 image001 image001 image001 image001

Planets Sun Sun Sun
Статистика раздачи
Автор: Снежана | Размер: 6.05 ГБ | Добавлен: 26 июл 2013
Раздают: 8    Качают: 6
Скачать торрент
Скачать торрент
Описание торрента

СообщениеДобавлено: 26 июл 2013 

#77

Название: Всемогущие Джонсоны
Оригинальное название: The Almighty Johnsons
Год выпуска: 2012
Страна: Новая Зеландия
Жанр: драма, фантастика
Продолжительность: 13 х ~ 00:45:00
Перевод: Любительский (многоголосый закадровый) - DreamRecords
Субтитры: Нет
Режиссер: Мюррэй Кин, Саймон Беннетт

В ролях: Эмметт Скилтон ,Тимоти Бальм, Дин О’Горман, Джаред Тернер, Бен Баррингтон, Хейден Фрост, Киша Касл-Хьюз, Ферн Сазерленд, Рэйчел Нэш, Ив Гордон
ии, которым случилось стать живыми воплощениями норвежских богов. У них даже есть свои божественные суперсилы. Может, правда, их силы не настолько велики. Пока нет, но вскоре все может измениться

Описание: Новая тихоокеанская комедия-драма о 4 братьях, выросших в Новой Зеландии, которым случилось стать живыми воплощениями норвежских богов. У них даже есть свои божественные суперсилы. Может, правда, их силы не настолько велики. Пока нет, но вскоре все может измениться.



Перевод: Julia Anderson
Озвучка: Kenum, Regecat, ИринаЮС, Pro-Snip
Работа со звуком: LeX
Рип видео: LeX



Качество: HDTVRip
Формат: AVI
Видео кодек: XviD
Аудио кодек: МР3
Видео: 720x400, 23.976 fps, 1 294 Kbps, 0.187 bit/pixel
Аудио rus: MP3, 48 kHz, 2 ch, 192 kbps

Format : AVI
Format/Info : Audio Video Interleave
File size : 473 MiB
Duration : 44mn 9s
Overall bit rate : 1 497 Kbps
Writing application : VirtualDubModRus 1.5.10.2 (build 2542/release)
Writing library : VirtualDubMod build 2542/release

Video
ID : 0
Format : MPEG-4 Visual
Format profile : Advanced Simple@L5
Format settings, BVOP : 1
Format settings, QPel : No
Format settings, GMC : No warppoints
Format settings, Matrix : Default (MPEG)
Codec ID : XVID
Codec ID/Hint : XviD
Duration : 44mn 9s
Bit rate : 1 295 Kbps
Width : 720 pixels
Height : 400 pixels
Display aspect ratio : 16:9
Frame rate : 25.000 fps
Color space : YUV
Chroma subsampling : 4:2:0
Bit depth : 8 bits
Scan type : Progressive
Compression mode : Lossy
Bits/(Pixel*Frame) : 0.180
Stream size : 409 MiB (87%)
Writing library : XviD 64

Audio
ID : 1
Format : MPEG Audio
Format version : Version 1
Format profile : Layer 3
Mode : Joint stereo
Codec ID : 55
Codec ID/Hint : MP3
Duration : 44mn 9s
Bit rate mode : Constant
Bit rate : 192 Kbps
Channel(s) : 2 channels
Sampling rate : 48.0 KHz
Compression mode : Lossy
Stream size : 60.6 MiB (13%)
Alignment : Aligned on interleaves
Interleave, duration : 40 ms (1.00 video frame)
Interleave, preload duration : 504 ms


Релиз от:



   Похожие торренты   Торрент   Размер 
В этой теме нет новых непрочитанных сообщений. Всемогущие Джонсоны / The Almighty Johnsons [S02] (2012) HDTVRip 720p | DreamRecords

3 | 3

15.32 ГБ

В этой теме нет новых непрочитанных сообщений. Всемогущие Джонсоны / The Almighty Johnsons [S01-03] (2011-2012) HDTVRip | DreamRecords

0 | 2

16.59 ГБ

В этой теме нет новых непрочитанных сообщений. Всемогущие Джонсоны / The Almighty Johnsons [S01] (2010) HDTVRip | DreamRecords

11 | 4

4.57 ГБ

В этой теме нет новых непрочитанных сообщений. Всемогущие Джонсоны / The Almighty Johnsons [S01] (2010) HDTVRip 720p | DreamRecords

1 | 2

11.11 ГБ

В этой теме нет новых непрочитанных сообщений. Всемогущие Джонсоны / The Almighty Johnsons [01-03х01-36 из 36] (2011-2013) WEB-DL 1080p от GeneralFilm

0 | 1

47.51 ГБ

В этой теме нет новых непрочитанных сообщений. Сверхъестественное / Supernatural [S08] (2012) HDTVRip | DreamRecords

163 | 39

9.97 ГБ

В этой теме нет новых непрочитанных сообщений. Сверхъестественное / Supernatural [07x22] (2012) HDTVRip | DreamRecords

0 | 2

337.77 МБ




Вы не можете начинать темы
Вы не можете отвечать на сообщения
Вы не можете редактировать свои сообщения
Вы не можете удалять свои сообщения
Вы не можете добавлять вложения

Перейти:  
Для Мосгорсуда, Роскомнадзора и рекламодателей: mosgorsud-torrent[собачка]yandex.ru
 Вход
ppkBB3cker v.2 © 2008-2014 @ PPK
[ Time : 0.111s | 14 Queries | GZIP : Off ]

Торрент трекер RUTOR.IN, Не можете зайти на rutor.org? Какой новый адрес рутор? Какое зеркало рутор? Не работает rutor.org и зеркала? Тогда наш торрент специально для вас. Rutor.in неофициальное зеркало rutor. В случае если у Вас заблокирован rutor или вдруг Вы не можете на него зайти, то Вы без труда сможете скачать бесплатно и без рекламы последние новинки кино, игр, сериалов и прочего у нас, на Rutor.in. Не нужно использовать прокси, чтобы зайти на рутор, достаточно воспользоваться нашим ресурсом. Все новые фильмы, игры, сериалы, книги и музыка за 2013 и 2014 годы через торрент бесплатно. Скачивайте фильмы в хорошем качестве, игры для пк, xbox, playstation без регистрации. У нас вы найдете новые Зарубежные сериалы и Русские сериалы 2013, 2014, 2015 годов. Оставайтесь с нами, качайте любимые фильмы, игры, сериалы, книги и музыку.