img image001 image001 image001 image001 image001 image001 image001 image001 image001 image001 image001 image001 image001 image001 image001

Planets Sun Sun Sun
Статистика раздачи
Автор: Снежана | Размер: 2.27 ГБ | Добавлен: 25 июл 2013
Раздают: 0    Качают: 1
Скачать торрент
Скачать торрент
Описание торрента

СообщениеДобавлено: 25 июл 2013 

Оригинальное название: Никаких других желаний
Год выпуска: 2006
Жанр: Мелодрама
Выпущено: Россия, Киностудия "РИНКО Медиа"
Режиссер: Роза Орынбасарова
В ролях: Александр Ивашкевич, Елена Попова, Анна Банщикова, Денис Агатов, Борис Бедросов, Константин Воробьев, Юлия Джербинова, Владимир Лисецкий, Владислав Пази, Хельга Филиппова

Описание: Она - героиня фильмов его юности, красивая и умная женщина. Он - намного моложе Её, удачливый бизнесмен, примерный муж и любящий отец. Они встречаются в больнице, куда оба попали, скорее, из желания уединения, чем из-за болезни, и оказались соседями по больничным палатам. Три недели - время, которое отведено Ему и Ей в заколдованном царстве Елагина острова, для того чтобы успеть пережить ощущение духовного родства, реальности любви и невозможности быть вместе. Их мир - Елагин остров - заповедный уголок Петербурга, место романтических встреч и историй, остров, чутко оберегающий чувства от посторонних глаз и дающий надежду...



Продолжительность: 4 x ~ 00:44:00
Язык: Русский

Сэмпл: http://multi-up.com/868668

Качество: DVB
Формат: MPEG-PS
Видео кодек: MPEG2
Аудио кодек: MP2
Видео: MPEG2 Video, 544x576 (4:3), 25 fps, 2841 Kbps, 0.36 bit/pixel
Аудио: MPEG Audio, 48 kHz, 2 ch, 192 kbps
General
Complete name : C:Никаких других желаний 1-4 из 4_2006_DVB.mpg
Format : MPEG-PS
File size : 2.27 GiB
Duration : 1h 44mn
Overall bit rate mode : Variable
Overall bit rate : 3 094 Kbps

Video
ID : 224 (0xE0)
Format : MPEG Video
Format version : Version 2
Format profile : Main@Main
Format settings, BVOP : Yes
Format settings, Matrix : Custom
Format settings, GOP : M=3, N=12
Duration : 1h 44mn
Bit rate mode : Variable
Bit rate : 2 841 Kbps
Maximum bit rate : 15.0 Mbps
Width : 544 pixels
Height : 576 pixels
Display aspect ratio : 4:3
Frame rate : 25.000 fps
Color space : YUV
Chroma subsampling : 4:2:0
Bit depth : 8 bits
Scan type : Interlaced
Scan order : Top Field First
Compression mode : Lossy
Bits/(Pixel*Frame) : 0.363
Time code of first frame : 00:00:00:00
Time code source : Group of pictures header
Stream size : 2.08 GiB (92%)

Audio
ID : 192 (0xC0)
Format : MPEG Audio
Format version : Version 1
Format profile : Layer 2
Duration : 1h 44mn
Bit rate mode : Constant
Bit rate : 192 Kbps
Channel(s) : 2 channels
Sampling rate : 48.0 KHz
Compression mode : Lossy
Stream size : 144 MiB (6%)




   Похожие торренты   Торрент   Размер 
В этой теме нет новых непрочитанных сообщений. Никаких других желаний [01-04 из 04] (2006) DVDRip

86 | 4

1.95 ГБ

В этой теме нет новых непрочитанных сообщений. Никаких других желаний [01-04 из 04] (2006) DVDRip

3 | 3

1.95 ГБ

В этой теме нет новых непрочитанных сообщений. Жизнь других / Das Leben der Anderen (2006) HDRip от Scarabey

100 | 7

2.21 ГБ

В этой теме нет новых непрочитанных сообщений. Жизнь других / Das Leben der Anderen (2006) HDRip от HQ-ViDEO

34 | 3

2.18 ГБ

В этой теме нет новых непрочитанных сообщений. Жизнь других / Das Leben der Anderen (2006) HDRip от Scarabey

188 | 13

1.45 ГБ

В этой теме нет новых непрочитанных сообщений. Жизнь других / Das Leben der Anderen (2006) HDRip от Scarabey

30 | 7

787.51 МБ

В этой теме нет новых непрочитанных сообщений. Жизнь других / Das Leben der Anderen (2006) HDRip-AVC | iPhone

34 | 3

760.04 МБ




Вы не можете начинать темы
Вы не можете отвечать на сообщения
Вы не можете редактировать свои сообщения
Вы не можете удалять свои сообщения
Вы не можете добавлять вложения

Перейти:  
Для Мосгорсуда, Роскомнадзора и рекламодателей: mosgorsud-torrent[собачка]yandex.ru
 Вход
ppkBB3cker v.2 © 2008-2014 @ PPK
[ Time : 0.738s | 15 Queries | GZIP : Off ]

Торрент трекер RUTOR.IN, Не можете зайти на rutor.org? Какой новый адрес рутор? Какое зеркало рутор? Не работает rutor.org и зеркала? Тогда наш торрент специально для вас. Rutor.in неофициальное зеркало rutor. В случае если у Вас заблокирован rutor или вдруг Вы не можете на него зайти, то Вы без труда сможете скачать бесплатно и без рекламы последние новинки кино, игр, сериалов и прочего у нас, на Rutor.in. Не нужно использовать прокси, чтобы зайти на рутор, достаточно воспользоваться нашим ресурсом. Все новые фильмы, игры, сериалы, книги и музыка за 2013 и 2014 годы через торрент бесплатно. Скачивайте фильмы в хорошем качестве, игры для пк, xbox, playstation без регистрации. У нас вы найдете новые Зарубежные сериалы и Русские сериалы 2013, 2014, 2015 годов. Оставайтесь с нами, качайте любимые фильмы, игры, сериалы, книги и музыку.