img image001 image001 image001 image001 image001 image001 image001 image001 image001 image001 image001 image001 image001 image001 image001

Planets Sun Sun Sun
Статистика раздачи
Автор: Снежана | Размер: 4.74 ГБ | Добавлен: 26 июл 2013
Раздают: 3    Качают: 5
Скачать торрент
Скачать торрент
Описание торрента

СообщениеДобавлено: 26 июл 2013 

Год выпуска: 2012
Производство: МАГНУМ по заказу МАРС МЕДИА
Жанр: Комедия, мелодрама
Продолжительность: 4 x ~ 00:46:00
Субтитры: нет

Режиссёр: Наталья Хлопецкая

В ролях: Юлия Кокрятская, Павел Прилучный, Александра Тюфтей, Роман Курцын, Дмитрий Марьянов, Людмила Чурсина, Александр Михайлов, Любовь Толкалина, Виктор Добронравов

Описание: Четыре новеллы про молодых людей, которые в своём активном стремлении состояться, как личности, сбиваются с пути и попадают в непростые и, порой, комичные ситуации. Но вспыхнувшие настоящие чувства меняют их взгляды на действительность и помогают найти себя в этом непростом мире.





Качество: WEBDLRip 720p [Рип с WEB-DL 1080i]
Формат: MKV
Видео кодек: H.264
Аудио кодек: MPEG Audio
Видео: x264, 1280 х 720 (16:9), 25,000 кадр/сек, ~ 3500 Кбит/сек, (0,152 bit/pixel)
Аудио: MPEG Audio 48000Hz stereo 192 Кбит/сек
Общее
Уникальный идентификатор : 173819221163021842775502584975838533429 (0x82C45D426C6E99728CF2C95A9149D735)
Полное имя : E:Downloads55Как выйти замуж за миллионера WEBDLRip 720pKak.vyiti.zamuzh.za.millionera_01_серия_WEBDLRip_720p_by_Серый1779.mkv
Формат : Matroska
Размер файла : 1,18 Гбайт
Продолжительность : 46 м.
Общий поток : 3687 Кбит/сек
Дата кодирования : UTC 2013-05-24 14:14:09
Программа кодирования : mkvmerge v4.9.1 ('Ich will') built on Sep 21 2011 17:48:11
Библиотека кодирования : libebml v1.2.1 + libmatroska v1.2.0

Видео
Идентификатор : 1
Формат : AVC
Формат/Информация : Advanced Video Codec
Профиль формата : High@L4.1
Параметр CABAC формата : Да
Параметр ReFrames формата : 9 кадров
Идентификатор кодека : V_MPEG4/ISO/AVC
Продолжительность : 46 м.
Битрейт : 3500 Кбит/сек
Ширина : 1280 пикс.
Высота : 720 пикс.
Соотношение сторон : 16:9
Частота кадров : 25,000 кадр/сек
Цветовое пространство : YUV
Подвыборка цветности : 4:2:0
Битовая глубина : 8 бит
Тип развёртки : Прогрессивная
Бит/(Пиксели*Кадры) : 0.152
Размер потока : 1,10 Гбайт (93%)
Библиотека кодирования : x264 core 118 r2085 8a62835
Настройки программы : cabac=1 / ref=9 / deblock=1:-3:-3 / analyse=0x3:0x133 / me=umh / subme=9 / psy=1 / psy_rd=1.00:0.15 / mixed_ref=1 / me_range=32 / chroma_me=1 / trellis=2 / 8x8dct=1 / cqm=0 / deadzone=21,11 / fast_pskip=0 / chroma_qp_offset=-3 / threads=6 / sliced_threads=0 / nr=0 / decimate=1 / interlaced=0 / bluray_compat=0 / constrained_intra=0 / bframes=9 / b_pyramid=2 / b_adapt=2 / b_bias=0 / direct=3 / weightb=1 / open_gop=0 / weightp=2 / keyint=250 / keyint_min=25 / scenecut=40 / intra_refresh=0 / rc=2pass / mbtree=0 / bitrate=3500 / ratetol=1.0 / qcomp=0.60 / qpmin=0 / qpmax=69 / qpstep=4 / cplxblur=20.0 / qblur=0.5 / ip_ratio=1.40 / pb_ratio=1.30 / aq=2:0.70
Основные цвета : BT.709-5, BT.1361, IEC 61966-2-4, SMPTE RP177
Характеристики трансфера : BT.709-5, BT.1361
Коэффициенты матрицы : BT.709-5, BT.1361, IEC 61966-2-4 709, SMPTE RP177

Аудио
Идентификатор : 2
Формат : MPEG Audio
Версия формата : Version 1
Профиль формата : Layer 2
Идентификатор кодека : A_MPEG/L2
Идентификатор кодека/Подсказка : MP2
Продолжительность : 46 м.
Вид битрейта : Постоянный
Битрейт : 192 Кбит/сек
Каналы : 2 канала
Частота : 44,1 КГц
Метод сжатия : С потерями
Размер потока : 63,2 Мбайт (5%)




   Похожие торренты   Торрент   Размер 
В этой теме нет новых непрочитанных сообщений. Как выйти замуж за миллионера [01-04 из 04] (2012) WEBDLRip-AVC

14 | 7

2.59 ГБ

В этой теме нет новых непрочитанных сообщений. Как выйти замуж за миллионера [01-04 из 04] (2012) WEB-DLRip от Unitracker

146 | 5

2.7 ГБ

В этой теме нет новых непрочитанных сообщений. Как выйти замуж за миллионера [01-04 из 04] (2012) WEB-DLRip 1080p

5 | 3

5.39 ГБ

В этой теме нет новых непрочитанных сообщений. Как выйти замуж за миллионера [01-04 из 04] (2012) DVD9 R5 от Youtracker | лицензия

3 | 2

6.67 ГБ

В этой теме нет новых непрочитанных сообщений. Как выйти замуж за миллионера [01-04 из 04] (2012) DVDRip от Youtracker | лицензия

41 | 6

3.16 ГБ

В этой теме нет новых непрочитанных сообщений. Как выйти замуж за миллионера [01-04 из 04] (2012) DVDRip-AVC от Youtracker | лицензия

150 | 13

3.16 ГБ

В этой теме нет новых непрочитанных сообщений. Как выйти замуж за миллионера [02x01-12 из 12] (2013) SATRip от Getty

596 | 317

6.46 ГБ




Вы не можете начинать темы
Вы не можете отвечать на сообщения
Вы не можете редактировать свои сообщения
Вы не можете удалять свои сообщения
Вы не можете добавлять вложения

Перейти:  
Для Мосгорсуда, Роскомнадзора и рекламодателей: mosgorsud-torrent[собачка]yandex.ru
 Вход
ppkBB3cker v.2 © 2008-2014 @ PPK
[ Time : 0.143s | 15 Queries | GZIP : Off ]

Торрент трекер RUTOR.IN, Не можете зайти на rutor.org? Какой новый адрес рутор? Какое зеркало рутор? Не работает rutor.org и зеркала? Тогда наш торрент специально для вас. Rutor.in неофициальное зеркало rutor. В случае если у Вас заблокирован rutor или вдруг Вы не можете на него зайти, то Вы без труда сможете скачать бесплатно и без рекламы последние новинки кино, игр, сериалов и прочего у нас, на Rutor.in. Не нужно использовать прокси, чтобы зайти на рутор, достаточно воспользоваться нашим ресурсом. Все новые фильмы, игры, сериалы, книги и музыка за 2013 и 2014 годы через торрент бесплатно. Скачивайте фильмы в хорошем качестве, игры для пк, xbox, playstation без регистрации. У нас вы найдете новые Зарубежные сериалы и Русские сериалы 2013, 2014, 2015 годов. Оставайтесь с нами, качайте любимые фильмы, игры, сериалы, книги и музыку.
cron