img image001 image001 image001 image001 image001 image001 image001 image001 image001 image001 image001 image001 image001 image001 image001

Planets Sun Sun Sun
Статистика раздачи
Автор: Снежана | Размер: 8.74 ГБ | Добавлен: 26 июл 2013
Раздают: 774    Качают: 88
Скачать торрент
Скачать торрент
Описание торрента

СообщениеДобавлено: 26 июл 2013 

#77
Год выпуска: 2012
Выпущено: Россия / Star Media

Жанр: детектив
Продолжительность: ~ 00:52:00 / серия

Перевод: не требуется
Оригинальная аудиодорожка: русский
Субтитры: нет

Режиссер: Михаил Вайнберг

В ролях: Иван Охлобыстин, Наталия Антонова, Елена Николаева, Павел Прилучный, Артур Ваха, Алексей Гришин, Александр Кузнецов, Наталья Рычкова, Алла Подчуфарова, Маргарита Быстрякова...

Описание: В следственный отдел прокуратуры введен специальный консультант, гражданский человек Роман Фрейдин, психолог по образованию. Его появление обусловлено необходимостью применения нетрадиционных методов борьбы с преступностью. В молодости Фрейдин объездил всю Россию и Европу, общался с людьми самых разных профессий — от квалифицированных психоаналитиков до народных колдунов и гадалок, от признанных ученых до карточных игроков с сомнительной репутацией. В расследовании преступлений Фрейдин опирается на интуицию и использует научные методики, воссоздает биокинетические картины событий, психофизические портреты преступников, прогнозирует действия бандитов. И каждый раз «залезая в голову» преступника, Фрейдин понимает, что трагедии можно было избежать, и что зачастую человек, нарушивший закон, не мрачный злодей, а запутавшаяся в жизненных обстоятельствах душа.





Качество: DVDRip (4xDVD9 R5)
Формат: AVI

Видео: 720x400 (16:9), 25.000 fps, XviD ~ 1800 kbps avg, 0.250 bit/pixel
Аудио: 48 kHz, Dolby AC3 2.0 192 kbps, русский
Дополнительно: Релиз рассчитан для записи на две болванки DVD5, по 6 серий на диск.

Раздача от:
Общее
Полное имя : Metod.Freida.2013.O.DVDRip_[Youtracker]_by_avproh�1.avi
Формат : AVI
Формат/Информация : Audio Video Interleave
Размер файла : 728 Мбайт
Продолжительность : 50 м.
Общий поток : 2001 Кбит/сек
Программа кодирования : VirtualDubModRus 1.5.10.2 (build 2542/release)
Библиотека кодирования : VirtualDubMod build 2542/release

Видео
Идентификатор : 0
Формат : MPEG-4 Visual
Профиль формата : Advanced Simple@L5
Параметр BVOP формата : 1
Параметр QPel формата : Нет
Параметр GMC формата : Без точки перехода
Параметр матрицы формата : Выборочная
Идентификатор кодека : XVID
Идентификатор кодека/Подсказка : XviD
Продолжительность : 50 м.
Битрейт : 1800 Кбит/сек
Ширина : 720 пикселей
Высота : 400 пикселей
Соотношение сторон : 16:9
Частота кадров : 25,000 кадров/сек
Цветовое пространство : YUV
Субдискретизация насыщенности : 4:2:0
Битовая глубина : 8 бит
Тип развёртки : Прогрессивная
Метод сжатия : С потерями
Бит/(Пиксели*Кадры) : 0.250
Размер потока : 655 Мбайт (90%)
Библиотека кодирования : XviD 65

Аудио
Идентификатор : 1
Формат : AC-3
Формат/Информация : Audio Coding 3
Расширение режима : CM (complete main)
Параметр Endianness формата : Big
Идентификатор кодека : 2000
Продолжительность : 50 м.
Вид битрейта : Постоянный
Битрейт : 192 Кбит/сек
Каналы : 2 канала
Расположение каналов : Front: L R
Частота : 48,0 КГц
Битовая глубина : 16 бит
Метод сжатия : С потерями
Размер потока : 69,9 Мбайт (10%)
Выравнивание : Разделение по промежуткам
Продолжительность промежутка : 40 мс. (1,00 видеокадр)
Время предзагрузки промежутка : 500 мс.



http://rutor.org/torrent/248458/

Не хотел делать этот релиз, но всё же скодировал одну серию и сравнил результат по видео: http://screenshotcomparison.com/comparison/25420, особых различий в картинке я не наблюдаю. Что напрягает в HD релизе, так это логотип канала и неграмотно сделанный звук: http://screenshotcomparison.com/comparison/25421
Я проверял исходник, в нем звук нормальный АС3 256 кбпс. То есть, когда конкурент переделывал звук, он его испортил. Последний раз рассказываю, как нужно делать в подобных случаях стереозвук:
1) видео кодируем отдельно от аудио;
2) при помощи tsMuxer извлекаем нужный звук из HD источника;
3) при помощи BeSweet конвертируем данный звук в стерео WAV файл;
4) при помощи Sony Vegas получаем АС3 файл с нужным битрейтом;
5) при помощи VirtualDubMod склеиваем полученные аудио и видео файлы.

Если действовать таким способом, то полученный звук будет в нужной кондиции, другие методы я не пробовал и не советую пробовать.

Сравнение с SATRip: с видео всё понятно http://screenshotcomparison.com/comparison/25484, а аудио никакое:



   Похожие торренты   Торрент   Размер 
В этой теме нет новых непрочитанных сообщений. Метод Фрейда [01-12 из 12] (2012) 4xDVD9 R5 от Youtracker | лицензия

1 | 9

30.71 ГБ

В этой теме нет новых непрочитанных сообщений. Метод Фрейда [01-12 из 12] (2012) DVDRip от Generalfilm | КПК

397 | 29

2.46 ГБ

В этой теме нет новых непрочитанных сообщений. Метод Фрейда [01-12 из 12] (2012) DVB

7 | 10

19.45 ГБ

В этой теме нет новых непрочитанных сообщений. Метод Фрейда [01-12 из 12] (2013) HDTVRip (AVC)

307 | 27

8.2 ГБ

В этой теме нет новых непрочитанных сообщений. Метод Фрейда [01-12 из 12] (2013) SATRip

676 | 162

7.49 ГБ

В этой теме нет новых непрочитанных сообщений. Метод Фрейда [01-12 из 12] (2013) HDTVRip 720p

40 | 22

21.87 ГБ

В этой теме нет новых непрочитанных сообщений. Метод Фрейда [01-12 из 12] (2013) HDTV (1080i)

28 | 43

37.64 ГБ




Вы не можете начинать темы
Вы не можете отвечать на сообщения
Вы не можете редактировать свои сообщения
Вы не можете удалять свои сообщения
Вы не можете добавлять вложения

Перейти:  
Для Мосгорсуда, Роскомнадзора и рекламодателей: mosgorsud-torrent[собачка]yandex.ru
 Вход
ppkBB3cker v.2 © 2008-2014 @ PPK
[ Time : 0.135s | 14 Queries | GZIP : Off ]

Торрент трекер RUTOR.IN, Не можете зайти на rutor.org? Какой новый адрес рутор? Какое зеркало рутор? Не работает rutor.org и зеркала? Тогда наш торрент специально для вас. Rutor.in неофициальное зеркало rutor. В случае если у Вас заблокирован rutor или вдруг Вы не можете на него зайти, то Вы без труда сможете скачать бесплатно и без рекламы последние новинки кино, игр, сериалов и прочего у нас, на Rutor.in. Не нужно использовать прокси, чтобы зайти на рутор, достаточно воспользоваться нашим ресурсом. Все новые фильмы, игры, сериалы, книги и музыка за 2013 и 2014 годы через торрент бесплатно. Скачивайте фильмы в хорошем качестве, игры для пк, xbox, playstation без регистрации. У нас вы найдете новые Зарубежные сериалы и Русские сериалы 2013, 2014, 2015 годов. Оставайтесь с нами, качайте любимые фильмы, игры, сериалы, книги и музыку.