img image001 image001 image001 image001 image001 image001 image001 image001 image001 image001 image001 image001 image001 image001 image001

Planets Sun Sun Sun
Статистика раздачи
Автор: Снежана | Размер: 6.38 ГБ | Добавлен: 25 июл 2013
Раздают: 1    Качают: 3
Скачать торрент
Скачать торрент
Описание торрента

СообщениеДобавлено: 25 июл 2013 

#77

Название: Библия
Оригинальное название: The Bible
Год выпуска: 2013
Жанр: Драма
Режиссер: Криспин Рис, Тони Митчелл, Кристофер Спенсер
В ролях: Диого Моргадо, Дауд Шах, Пол Брайтвелл, Рома Дауни, Грег Хикс, Себастьян Кнапп, Эмбер Роуз Рева, Адриан Шиллер, Эндрю Брук, Луиз Деламер

Описание: Самая масштабная экранизация библейских сюжетов, как утверждают авторы, снята в духе современных исторических сериалов c добавлением к живым сценам - компьютерной графики. Истории о Ноевом ковчеге, исходе из Египта под предводительством Моисея, рождении, смерти и воскресении Иисуса. Сериал состоит из 10 ключевых повествований. Начиная от книги Бытие и заканчивая книгой Откровение. Воссоздать и снять истории Ветхого и Нового заветов решился 43-летний британский продюсер Марк Барнетт с супругой. Съемки стоимостью в 22 миллиона долларов прошли на Ближнем Востоке и собрали актеров со всего мира (Самсон из африканской диаспоры, Давид из Ирландии, Иисус из Португалии, и т.д.). В качестве консультантов были привлечены десятки пасторов и ученых.



Страна: США
Продолжительность: 10 x ~ 00:45:00
Перевод: Профессиональный (многоголосый, закадровый) - Baibako
Субтитры: Нет

Перевод: Янина Галицкая
Озвучка: Лира Грим, Ольга Мотрич, Сергей Корчак и Виталий Ткаченко
Монтаж: Павел Дежин

Качество: HDTVRip-AVC, BDRip-AVC
Формат: MPEG-4
Видео: MPEG-4 AVC, ~ 1550 Кбит/с, 720x400
Аудио rus: АAC, 2 ch, 192 Кбит/с
Аудио eng: АAC, 2 ch, 192 Кбит/с

01. В начале / In the Beginning
02. Исход / Exodus
03. Земля Обетованная / Homeland
04. Царство / Kingdom
05. Survival
06. Hope
07. Mission
08. Betrayal
09. Passion
10. Courage
Общее
Полное имя : D:Dian KehtBaibaKoThe.Bible.s01.HDTVRip-AVC.Rus.EngThe.Bible.s01e01.HDTVRip.x264.Rus.Eng.BaibaKo.tv.mp4
Формат : MPEG-4
Профиль формата : Base Media
Идентификатор кодека : isom
Размер файла : 577 Мбайт
Продолжительность : 41 м.
Общий поток : 1924 Кбит/сек
Дата кодирования : UTC 2013-03-15 22:38:08
Дата пометки : UTC 2013-03-15 22:38:08

Видео
Идентификатор : 1
Формат : AVC
Формат/Информация : Advanced Video Codec
Профиль формата : Baseline@L3.0
Параметр CABAC формата : Нет
Параметр ReFrames формата : 3 кадра
Идентификатор кодека : avc1
Идентификатор кодека/Информация : Advanced Video Coding
Продолжительность : 41 м.
Вид битрейта : Переменный
Битрейт : 1536 Кбит/сек
Максимальный битрейт : 10000 Кбит/сек
Ширина : 720 пикс.
Высота : 400 пикс.
Соотношение сторон : 16:9
Режим частоты кадров : Постоянный
Частота кадров : 25,000 кадр/сек
Цветовое пространство : YUV
Подвыборка цветности : 4:2:0
Битовая глубина : 8 бит
Тип развёртки : Прогрессивная
Бит/(Пиксели*Кадры) : 0.213
Размер потока : 461 Мбайт (80%)
Заголовок : The Bible Part1-Part2 720p HDTV x264-KILLERS (1)-001 (1)
Библиотека кодирования : x264 core 129 r2245 bc13772
Настройки программы : cabac=0 / ref=3 / deblock=1:0:0 / analyse=0x1:0x111 / me=hex / subme=7 / psy=1 / psy_rd=1.00:0.00 / mixed_ref=1 / me_range=16 / chroma_me=1 / trellis=1 / 8x8dct=0 / cqm=0 / deadzone=21,11 / fast_pskip=1 / chroma_qp_offset=-2 / threads=6 / lookahead_threads=1 / sliced_threads=0 / nr=0 / decimate=1 / interlaced=0 / bluray_compat=0 / constrained_intra=0 / bframes=0 / weightp=0 / keyint=250 / keyint_min=25 / scenecut=40 / intra_refresh=0 / rc_lookahead=40 / rc=2pass / mbtree=1 / bitrate=1536 / ratetol=1.0 / qcomp=0.60 / qpmin=0 / qpmax=69 / qpstep=4 / cplxblur=20.0 / qblur=0.5 / vbv_maxrate=10000 / vbv_bufsize=10000 / nal_hrd=vbr / ip_ratio=1.40 / aq=1:1.00
Дата кодирования : UTC 2013-03-15 20:22:05
Дата пометки : UTC 2013-03-15 22:39:51

Аудио #1
Идентификатор : 2
Формат : AAC
Формат/Информация : Advanced Audio Codec
Профиль формата : LC
Идентификатор кодека : 40
Продолжительность : 41 м.
Вид битрейта : Переменный
Битрейт : 192 Кбит/сек
Максимальный битрейт : 200 Кбит/сек
Каналы : 2 канала
Расположение каналов : Front: L R
Частота : 48,0 КГц
Метод сжатия : С потерями
Размер потока : 57,6 Мбайт (10%)
Язык : Russian
Дата кодирования : UTC 2013-03-15 21:57:30
Дата пометки : UTC 2013-03-15 22:39:51

Аудио #2
Идентификатор : 3
Формат : AAC
Формат/Информация : Advanced Audio Codec
Профиль формата : LC
Идентификатор кодека : 40
Продолжительность : 41 м.
Вид битрейта : Переменный
Битрейт : 192 Кбит/сек
Максимальный битрейт : 197 Кбит/сек
Каналы : 2 канала
Расположение каналов : Front: L R
Частота : 48,0 КГц
Метод сжатия : С потерями
Размер потока : 57,6 Мбайт (10%)
Язык : English
Дата кодирования : UTC 2013-03-15 22:29:42
Дата пометки : UTC 2013-03-15 22:39:51







Релиз от:



   Похожие торренты   Торрент   Размер 
В этой теме нет новых непрочитанных сообщений. Библия / The Bible [S01] (2013) HDTVRip, BDRip | Baibako

65 | 19

6.75 ГБ

В этой теме нет новых непрочитанных сообщений. Библия / The Bible [S01] (2013) HDTVRip-AVC, BDRip-AVC 1080p l Baibako

7 | 7

22.46 ГБ

В этой теме нет новых непрочитанных сообщений. Библия / The Bible [S01] (2013) BDRip l Baibako

41 | 15

6.45 ГБ

В этой теме нет новых непрочитанных сообщений. Библия / The Bible [01x01, 03-10 из 10] (2013) BDRip 1080p | Baibako

5 | 7

35.55 ГБ

В этой теме нет новых непрочитанных сообщений. Библия / The Bible [S01] (2013) HDTVRip 720p, BDRip 720p | Baibako

20 | 6

22.21 ГБ

В этой теме нет новых непрочитанных сообщений. Библия / The Bible [S01] (2013) WEB-DL 720p | ТВ3

104 | 14

15.6 ГБ

В этой теме нет новых непрочитанных сообщений. Библия / The Bible [S01] (2013) WEB-DLRip | ТВ3

49 | 4

4.38 ГБ




Вы не можете начинать темы
Вы не можете отвечать на сообщения
Вы не можете редактировать свои сообщения
Вы не можете удалять свои сообщения
Вы не можете добавлять вложения

Перейти:  
Для Мосгорсуда, Роскомнадзора и рекламодателей: mosgorsud-torrent[собачка]yandex.ru
 Вход
ppkBB3cker v.2 © 2008-2014 @ PPK
[ Time : 0.043s | 16 Queries | GZIP : Off ]

Торрент трекер RUTOR.IN, Не можете зайти на rutor.org? Какой новый адрес рутор? Какое зеркало рутор? Не работает rutor.org и зеркала? Тогда наш торрент специально для вас. Rutor.in неофициальное зеркало rutor. В случае если у Вас заблокирован rutor или вдруг Вы не можете на него зайти, то Вы без труда сможете скачать бесплатно и без рекламы последние новинки кино, игр, сериалов и прочего у нас, на Rutor.in. Не нужно использовать прокси, чтобы зайти на рутор, достаточно воспользоваться нашим ресурсом. Все новые фильмы, игры, сериалы, книги и музыка за 2013 и 2014 годы через торрент бесплатно. Скачивайте фильмы в хорошем качестве, игры для пк, xbox, playstation без регистрации. У нас вы найдете новые Зарубежные сериалы и Русские сериалы 2013, 2014, 2015 годов. Оставайтесь с нами, качайте любимые фильмы, игры, сериалы, книги и музыку.
cron