img image001 image001 image001 image001 image001 image001 image001 image001 image001 image001 image001 image001 image001 image001 image001

Planets Sun Sun Sun
Статистика раздачи
Автор: Снежана | Размер: 9.69 ГБ | Добавлен: 25 июл 2013
Раздают: 97    Качают: 21
Скачать торрент
Скачать торрент
Описание торрента

СообщениеДобавлено: 25 июл 2013 

#77

Информация о фильме
Название: Зои Харт из южного штата / Сердце Дикси
Оригинальное название: Hart of Dixie
Год выхода: 2012
Жанр: драма, комедия
Режиссер: Дэвид Пэймер, Тим Мэтисон, Джо Лазаров
В ролях: Рэйчел Билсон, Джейми Кинг, Кресс Уильямс, Уилсон Бетел, Скотт Портер, Дебора С. Крэйг, Тим Мэтисон, Реджинальд ВелДжонсон, Росс Филипс, Эйза Дэвис

О фильме:
Молодой врач из Нью-Йорка, по имени Зои Харт, отправляется на практику в небольшой городок на юге США, населенном необычными и эксцентричными личностями, и она всеми силами пытается адаптироваться на новом месте.
Официальный сайт

Страна: США
Студия: Warner Bros. Television, CBS Television Studios, Fake Empire Productions
Продолжительность: ~ 42 минуты серия
Перевод: Любительский (многоголосый, закадровый) [To4ka] / Оригинал (английский)
Озвучка: Александр Нелюбин, Ирина Грачева, Марина Комчарукова
Перевод: Релиз-группа "Частная практика"
Работа с видео и рип: LegendKiev
Сведение звука: Kyliknikylik

Файл
Кодек: XviD / MP3
Качество: WEBDLRip
Видео: XviD, 720x400 (16:9), 23.976 fps, ~1200 kbps, ~0.175 bit/pixel
Звук:
Аудио Rus: 48 kHz, 2 ch, ~128 kbps |To4ka|
Аудио Eng: 48 kHz, 2 ch, ~128 kbps |Original|

Семпл

Общее
Полное имя : G:Hart.of.Dixie.s02.WEB-DLRip.Rus.Eng.[To4ka.TV]Hart.of.Dixie.s02e01.WEB-DLRip.Rus.Eng.[To4ka.TV].avi
Формат : AVI
Формат/Информация : Audio Video Interleave
Размер файла : 451 Мбайт
Продолжительность : 42 м.
Общий поток : 1475 Кбит/сек
Программа кодирования : VirtualDubModRus 1.5.10.2 (build 2542/release)
Библиотека кодирования : VirtualDubMod build 2542/release

Видео
Идентификатор : 0
Формат : MPEG-4 Visual
Профиль формата : Advanced Simple@L5
Параметр BVOP формата : 1
Параметр QPel формата : Нет
Параметр GMC формата : Без точки перехода
Параметр матрицы формата : Выборочная
Идентификатор кодека : XVID
Идентификатор кодека/Подсказка : XviD
Продолжительность : 42 м.
Битрейт : 1204 Кбит/сек
Ширина : 720 пикселей
Высота : 400 пикселей
Соотношение сторон : 16:9
Частота кадров : 23,976 кадра/сек
Цветовое пространство : YUV
Субдискретизация насыщенности : 4:2:0
Битовая глубина : 8 бит
Тип развёртки : Прогрессивная
Метод сжатия : С потерями
Бит/(Пиксели*Кадры) : 0.174
Размер потока : 368 Мбайт (82%)
Библиотека кодирования : XviD 73

Аудио #1
Идентификатор : 1
Формат : MPEG Audio
Версия формата : Version 1
Профиль формата : Layer 3
Режим : Joint stereo
Расширение режима : MS Stereo
Идентификатор кодека : 55
Идентификатор кодека/Подсказка : MP3
Продолжительность : 42 м.
Вид битрейта : Постоянный
Битрейт : 128 Кбит/сек
Каналы : 2 канала
Частота : 48,0 КГц
Метод сжатия : С потерями
Размер потока : 39,1 Мбайт (9%)
Выравнивание : Соединение по промежуткам
Продолжительность промежутка : 42 мс. (1,00 видеокадр)
Время предзагрузки промежутка : 504 мс.

Аудио #2
Идентификатор : 2
Формат : MPEG Audio
Версия формата : Version 1
Профиль формата : Layer 3
Режим : Joint stereo
Расширение режима : MS Stereo
Идентификатор кодека : 55
Идентификатор кодека/Подсказка : MP3
Продолжительность : 42 м.
Вид битрейта : Постоянный
Битрейт : 128 Кбит/сек
Каналы : 2 канала
Частота : 48,0 КГц
Метод сжатия : С потерями
Размер потока : 39,1 Мбайт (9%)
Выравнивание : Разделение по промежуткам
Продолжительность промежутка : 42 мс. (1,00 видеокадр)
Время предзагрузки промежутка : 500 мс.



   Похожие торренты   Торрент   Размер 
В этой теме нет новых непрочитанных сообщений. Зои Харт из южного штата / Сердце Дикси / Hart of Dixie [03x01-09] (2013) WEB-DLRip | To4ka

101 | 251

3.96 ГБ

В этой теме нет новых непрочитанных сообщений. Сердце Дикси / Зои Харт из южного штата / Hart of Dixie [S01] (2011) WEB-DLRip | Gravi-TV, To4ka

44 | 37

9.68 ГБ

В этой теме нет новых непрочитанных сообщений. Зои Харт из южного штата / Сердце Дикси / Hart of Dixie [03x01-11] (2013) WEB-DLRip | To4ka

59 | 130

4.84 ГБ

В этой теме нет новых непрочитанных сообщений. Сердце Дикси / Hart of Dixie [S02] (2012) WEB-DL 1080p | To4ka

21 | 8

38.65 ГБ

В этой теме нет новых непрочитанных сообщений. Сердце Дикси / Hart of Dixie [02x01-20] (2012) WEB-DL 1080p | To4ka

0 | 2

35.19 ГБ

В этой теме нет новых непрочитанных сообщений. В аду Дикси / In the Hell of Dixie (2016) WEB-DLRip | L

100 | 6

2.05 ГБ

В этой теме нет новых непрочитанных сообщений. Благодаря Винн Дикси / Because of Winn-Dixie (2005) HDRip

7 | 2

2.18 ГБ




Вы не можете начинать темы
Вы не можете отвечать на сообщения
Вы не можете редактировать свои сообщения
Вы не можете удалять свои сообщения
Вы не можете добавлять вложения

Перейти:  
Для Мосгорсуда, Роскомнадзора и рекламодателей: mosgorsud-torrent[собачка]yandex.ru
 Вход
ppkBB3cker v.2 © 2008-2014 @ PPK
[ Time : 0.064s | 15 Queries | GZIP : Off ]

cron