img image001 image001 image001 image001 image001 image001 image001 image001 image001 image001 image001 image001 image001 image001 image001

Planets Sun Sun Sun
Статистика раздачи
Автор: Снежана | Размер: 7.07 ГБ | Добавлен: 25 июл 2013
Раздают: 3    Качают: 16
Скачать торрент
Скачать торрент
Описание торрента

СообщениеДобавлено: 25 июл 2013 

#77
Название: Я тебя никому не отдам
Год выпуска: 2010
Производство: Star Media
Жанр: Мелодрама
Продолжительность: ~ 00:45:00
Субтитры: Отсутствуют
Страна: Россия, Украина
Режиссёр: Владимир Янощук
Перевод: оригинал (русский)

В ролях:Марина Александрова, Анатолий Пашинин, Евгений Пронин, Агния Кузнецова, Михаил Жигалов, Раиса Рязанова, Ада Роговцева, Анна Уколова

Описание: Светлана была перспективной пианисткой и счастливой женой. Но в результате несчастного случая у нее оказались серьезно повреждены кисти рук, и с работой пришлось проститься. Выйти из депрессии ей помогает муж Александр - водитель автобуса. Но у него самого все непросто: ребенка от него ждет не только жена, но и кондукторша Рита. Расстроенный мужчина теряет бдительность на дороге, сбивает женщину и попадает в тюрьму.
Светлана в родах теряет малыша. Спустя некоторое время она находит под дверью месячного подкидыша - девочку. Это дочь Риты и Александра. Почувствовав, что младенец - путь к ее спасению, Светлана едет с ним в глухое село и пять лет живет спокойно: работает на почте и дает уроки музыки бывшему воину-афганцу. Ученик влюбляется в учительницу, и в это время Александр, отбыв наказание, приезжает в село…

Релиз:



Качество: DVB
Формат: MPEG
Видео кодек: MPEG2
Аудио кодек: MPEG1 Layer 2
Видео: MPEG2 Video 720x576 (4:3) 25.00fps 5 359 Kbps, 0.517 bit/pixel
Аудио: MPEG Audio 48000Hz stereo 256 Кбит/сек
Complete name : F:TORENTRAZDACHIЯ тебя никому не отдам by CLIPMANЯ тебя никому не отдам.01_DVB by CLIPMAN.mpg
Format : MPEG-PS
File size : 1.77 GiB
Duration : 44mn 18s
Overall bit rate : 5 729 Kbps
Writing library : (c) 1997-2004 Womble Multimedia, Inc. / MPEG-VCR V3.14 (06/2004) / Jun 27 2004

Video
ID : 224 (0xE0)
Format : MPEG Video
Format version : Version 2
Format profile : Main@Main
Format settings, BVOP : Yes
Format settings, Matrix : Default
Format settings, GOP : M=2, N=12
Duration : 44mn 18s
Bit rate mode : Variable
Bit rate : 5 359 Kbps
Nominal bit rate : 10 000 Kbps
Width : 720 pixels
Height : 576 pixels
Display aspect ratio : 4:3
Frame rate : 25.000 fps
Standard : PAL
Color space : YUV
Chroma subsampling : 4:2:0
Bit depth : 8 bits
Scan type : Interlaced
Scan order : Top Field First
Bits/(Pixel*Frame) : 0.517
Stream size : 1.66 GiB (94%)
Writing library : (c) 1997-2004 Womble Multimedia, Inc. / MPEG-VCR V3.14 (06/2004) / Jun 27 2004

Audio
ID : 192 (0xC0)
Format : MPEG Audio
Format version : Version 1
Format profile : Layer 2
Duration : 44mn 18s
Bit rate mode : Constant
Bit rate : 256 Kbps
Channel(s) : 2 channels
Sampling rate : 48.0 KHz
Stream size : 81.1 MiB (4%)




   Похожие торренты   Торрент   Размер 
В этой теме нет новых непрочитанных сообщений. Я тебя никому не отдам [01-04 из 04] (2010) DVD5

2 | 3

4.13 ГБ

В этой теме нет новых непрочитанных сообщений. Я тебя никому не отдам [01-04 из 04] (2010) HDTVRip-AVC

28 | 3

2.07 ГБ

В этой теме нет новых непрочитанных сообщений. Я тебя никому не отдам [01-04 из 04] (2010) WEB-DL 720p от ExKinoRay

59 | 10

4.18 ГБ

В этой теме нет новых непрочитанных сообщений. Я тебя никому не отдам [01-04 из 04] (2010) WEB-DLRip от GeneralFilm

157 | 40

2.54 ГБ

В этой теме нет новых непрочитанных сообщений. Я тебя никому не отдам [01-04 из 04] (2010) HDTV 1080i

2 | 2

10.73 ГБ

В этой теме нет новых непрочитанных сообщений. Я тебя никому не отдам [01-04 из 04] (2010) SATRip от КинозалSat

23 | 5

2.15 ГБ

В этой теме нет новых непрочитанных сообщений. Я тебя никому не отдам (4 серии из 4) (2010) DVDRip от Giorgi0412

10 | 4

2.14 ГБ




Вы не можете начинать темы
Вы не можете отвечать на сообщения
Вы не можете редактировать свои сообщения
Вы не можете удалять свои сообщения
Вы не можете добавлять вложения

Перейти:  
Для Мосгорсуда, Роскомнадзора и рекламодателей: mosgorsud-torrent[собачка]yandex.ru
 Вход
ppkBB3cker v.2 © 2008-2014 @ PPK
[ Time : 0.040s | 14 Queries | GZIP : Off ]

Торрент трекер RUTOR.IN, Не можете зайти на rutor.org? Какой новый адрес рутор? Какое зеркало рутор? Не работает rutor.org и зеркала? Тогда наш торрент специально для вас. Rutor.in неофициальное зеркало rutor. В случае если у Вас заблокирован rutor или вдруг Вы не можете на него зайти, то Вы без труда сможете скачать бесплатно и без рекламы последние новинки кино, игр, сериалов и прочего у нас, на Rutor.in. Не нужно использовать прокси, чтобы зайти на рутор, достаточно воспользоваться нашим ресурсом. Все новые фильмы, игры, сериалы, книги и музыка за 2013 и 2014 годы через торрент бесплатно. Скачивайте фильмы в хорошем качестве, игры для пк, xbox, playstation без регистрации. У нас вы найдете новые Зарубежные сериалы и Русские сериалы 2013, 2014, 2015 годов. Оставайтесь с нами, качайте любимые фильмы, игры, сериалы, книги и музыку.