img image001 image001 image001 image001 image001 image001 image001 image001 image001 image001 image001 image001 image001 image001 image001

Planets Sun Sun Sun
Статистика раздачи
Автор: Снежана | Размер: 4.13 ГБ | Добавлен: 25 июл 2013
Раздают: 2    Качают: 3
Скачать торрент
Скачать торрент
Описание торрента

СообщениеДобавлено: 25 июл 2013 

#77


Год выпуска: 2010
Производство: Россия, Украина; «Стар-медиа»
Дистрибьютор: «Флагман Трейд»
Жанр: Мелодрама, драма, криминал, сериал
Продолжительность: 178 мин.
Субтитры: отсуствуют

Режиссёр: Владимир Янощук

В ролях:
Марина Александрова, Агния Кузнецова, Анатолий Пашинин, Евгений Пронин, Михаил Жигалов, Ольга Когут, Раиса Рязанова, Ада Роговцева, Анна Уколова, Игорь Неведров, Майя Кузьмишина

Описание:
Светлана была перспективной пианисткой и счастливой женой. Но в результате несчастного случая у нее оказались серьезно повреждены кисти рук, и с работой пришлось проститься. Выйти из депрессии ей должен помочь муж Александр — водитель автобуса.
Но у него самого все непросто: ребенка от него ждет не только жена, но и кондуктор Рита. Расстроенный мужчина теряет бдительность на дороге, сбивает женщину и попадает в тюрьму. Светлана при родах теряет малыша. Спустя некоторое время она находит под дверью месячного подкидыша — девочку. Это дочь Риты и Александра.
Почувствовав, что младенец — путь к ее спасению, Светлана едет с ним в глухое село и пять лет живет спокойно: работает на почте и дает уроки музыки бывшему воину-афганцу. Ученик влюбляется в учительницу, и в это время Александр, отбыв наказание, приезжает в село…
Отсидев положенный срок, возвращается из тюрьмы муж Светланы, он сразу заявляет забрать девочку у Светланы, но Рита, ударом ножа в сердце Александра, ставит точку, ну а дальше смотрите сами друзья….

Игра Марины Александровой меня всегда поражает! Столько красоты и таланта досталось Марине. Чего не хватает Домогарову, не понятно…..ИМХО




Качество: DVD5
Формат: DVD-Video
Видео кодек: MPEG2
Аудио кодек: AC3
Видео: PAL 16:9 (720x576) VBR Auto Letterboxed 25.00fps 9000kbps
Аудио: Russian (Dolby AC3, 2 ch) AC3 48000Hz stereo 192kbps
Общее
Полное имя : D:Я тебя никому не отдам DVD5VIDEO_TSVIDEO_TS.BUP
Формат : DVD Video
Профиль формата : Menu
Размер файла : 12,0 Кбайт

Видео
Идентификатор : 224 (0xE0)
Формат : MPEG Video
Версия формата : Version 2
Вид битрейта : Переменный
Ширина : 720 пикс.
Высота : 576 пикс.
Соотношение сторон : 16:9
Частота кадров : 25,000 кадр/сек
Стандарт вещания : PAL
Метод сжатия : С потерями

Текст
Формат : RLE
Формат/Информация : Run-length encoding
Битовая глубина : 2 бит

Общее
Полное имя : D:Я тебя никому не отдам DVD5VIDEO_TSVIDEO_TS.IFO
Формат : DVD Video
Профиль формата : Menu
Размер файла : 12,0 Кбайт

Видео
Идентификатор : 224 (0xE0)
Формат : MPEG Video
Версия формата : Version 2
Вид битрейта : Переменный
Ширина : 720 пикс.
Высота : 576 пикс.
Соотношение сторон : 16:9
Частота кадров : 25,000 кадр/сек
Стандарт вещания : PAL
Метод сжатия : С потерями

Текст
Формат : RLE
Формат/Информация : Run-length encoding
Битовая глубина : 2 бит

Общее
Полное имя : D:Я тебя никому не отдам DVD5VIDEO_TSVIDEO_TS.VOB
Формат : MPEG-PS
Размер файла : 3,08 Мбайт
Продолжительность : 8 с. 80 мс.
Общий поток : 3202 Кбит/сек

Видео
Идентификатор : 224 (0xE0)
Формат : MPEG Video
Версия формата : Version 2
Профиль формата : Main@Main
Параметр BVOP формата : Да
Параметр матрицы формата : По умолчанию
Параметры GOP формата : M=3, N=10
Продолжительность : 8 с. 80 мс.
Вид битрейта : Переменный
Битрейт : 3138 Кбит/сек
Номинальный битрейт : 8000 Кбит/сек
Ширина : 720 пикс.
Высота : 576 пикс.
Соотношение сторон : 16:9
Частота кадров : 25,000 кадр/сек
Стандарт вещания : PAL
Цветовое пространство : YUV
Подвыборка цветности : 4:2:0
Битовая глубина : 8 бит
Тип развёртки : Прогрессивная
Метод сжатия : С потерями
Бит/(Пиксели*Кадры) : 0.303
Размер потока : 3,02 Мбайт (98%)

Меню

Общее
Полное имя : D:Я тебя никому не отдам DVD5VIDEO_TSVTS_01_0.BUP
Формат : DVD Video
Профиль формата : Program
Размер файла : 108 Кбайт
Продолжительность : 45 м.
Общий поток : 321 бит/сек

Видео
Идентификатор : 224 (0xE0)
Формат : MPEG Video
Версия формата : Version 2
Продолжительность : 45 м.
Вид битрейта : Переменный
Ширина : 720 пикс.
Высота : 576 пикс.
Соотношение сторон : 16:9
Частота кадров : 25,000 кадр/сек
Стандарт вещания : PAL
Метод сжатия : С потерями

Аудио
Идентификатор : 128 (0x80)
Формат : AC-3
Формат/Информация : Audio Coding 3
Продолжительность : 45 м.
Каналы : 2 канала
Частота : 48,0 КГц
Метод сжатия : С потерями
Язык : Russian

Меню #1
Продолжительность : 44 м.
00:00:00.000 : Chapter 1
00:09:55.960 : Chapter 2
00:19:48.960 : Chapter 3
00:29:48.880 : Chapter 4
00:40:31.920 : Chapter 5
List (Audio) : 0

Меню #2
Продолжительность : 45 м.
00:00:00.000 : Chapter 1
00:00:08.280 : Chapter 2
00:00:55.280 : Chapter 3
00:01:39.280 : Chapter 4
00:01:49.280 : Chapter 5
List (Audio) : 0

Общее
Полное имя : D:Я тебя никому не отдам DVD5VIDEO_TSVTS_01_0.IFO
Формат : DVD Video
Профиль формата : Program
Размер файла : 108 Кбайт
Продолжительность : 45 м.
Общий поток : 321 бит/сек

Видео
Идентификатор : 224 (0xE0)
Формат : MPEG Video
Версия формата : Version 2
Продолжительность : 45 м.
Вид битрейта : Переменный
Ширина : 720 пикс.
Высота : 576 пикс.
Соотношение сторон : 16:9
Частота кадров : 25,000 кадр/сек
Стандарт вещания : PAL
Метод сжатия : С потерями

Аудио
Идентификатор : 128 (0x80)
Формат : AC-3
Формат/Информация : Audio Coding 3
Продолжительность : 45 м.
Каналы : 2 канала
Частота : 48,0 КГц
Метод сжатия : С потерями
Язык : Russian

Меню #1
Продолжительность : 44 м.
00:00:00.000 : Chapter 1
00:09:55.960 : Chapter 2
00:19:48.960 : Chapter 3
00:29:48.880 : Chapter 4
00:40:31.920 : Chapter 5
List (Audio) : 0

Меню #2
Продолжительность : 45 м.
00:00:00.000 : Chapter 1
00:00:08.280 : Chapter 2
00:00:55.280 : Chapter 3
00:01:39.280 : Chapter 4
00:01:49.280 : Chapter 5
List (Audio) : 0

Общее
Полное имя : D:Я тебя никому не отдам DVD5VIDEO_TSVTS_01_0.VOB
Формат : MPEG-PS
Размер файла : 57,9 Мбайт
Продолжительность : 49 с.
Общий поток : 9747 Кбит/сек

Видео
Идентификатор : 224 (0xE0)
Формат : MPEG Video
Версия формата : Version 2
Профиль формата : Main@Main
Параметр BVOP формата : Да
Параметр матрицы формата : По умолчанию
Параметры GOP формата : M=3, N=15
Продолжительность : 49 с.
Вид битрейта : Переменный
Битрейт : 9000 Кбит/сек
Ширина : 720 пикс.
Высота : 576 пикс.
Соотношение сторон : 16:9
Частота кадров : 25,000 кадр/сек
Стандарт вещания : PAL
Цветовое пространство : YUV
Подвыборка цветности : 4:2:0
Битовая глубина : 8 бит
Тип развёртки : Чересстрочная
Порядок развёртки : Нижнее поле первое
Метод сжатия : С потерями
Бит/(Пиксели*Кадры) : 0.868
Размер потока : 55,6 Мбайт (96%)

Аудио
Идентификатор : 189 (0xBD)-128 (0x80)
Формат : AC-3
Формат/Информация : Audio Coding 3
Расширение режима : CM (complete main)
Режим смешивания : DVD-Video
Продолжительность : 49 с.
Вид битрейта : Постоянный
Битрейт : 192 Кбит/сек
Каналы : 2 канала
Расположение каналов : Front: L R
Частота : 48,0 КГц
Битовая глубина : 16 бит
Метод сжатия : С потерями
Задержка видео : -80 мс.
Размер потока : 1,14 Мбайт (2%)

Текст #1
Идентификатор : 189 (0xBD)-32 (0x20)
Формат : RLE
Формат/Информация : Run-length encoding
Режим смешивания : DVD-Video
Задержка видео : -80 мс.

Текст #2
Идентификатор : 189 (0xBD)-33 (0x21)
Формат : RLE
Формат/Информация : Run-length encoding
Режим смешивания : DVD-Video
Задержка видео : -80 мс.

Меню

Общее
Полное имя : D:Я тебя никому не отдам DVD5VIDEO_TSVTS_01_1.VOB
Формат : MPEG-PS
Размер файла : 1024 Мбайт
Продолжительность : 43 м.
Общий поток : 3280 Кбит/сек

Видео
Идентификатор : 224 (0xE0)
Формат : MPEG Video
Версия формата : Version 2
Профиль формата : Main@Main
Параметр BVOP формата : Да
Параметр матрицы формата : По умолчанию
Продолжительность : 43 м.
Вид битрейта : Переменный
Битрейт : 3023 Кбит/сек
Номинальный битрейт : 9000 Кбит/сек
Ширина : 720 пикс.
Высота : 576 пикс.
Соотношение сторон : 16:9
Частота кадров : 25,000 кадр/сек
Стандарт вещания : PAL
Цветовое пространство : YUV
Подвыборка цветности : 4:2:0
Битовая глубина : 8 бит
Тип развёртки : Чересстрочная
Порядок развёртки : Верхнее поле первое
Метод сжатия : С потерями
Бит/(Пиксели*Кадры) : 0.292
Размер потока : 944 Мбайт (92%)

Аудио
Идентификатор : 189 (0xBD)-128 (0x80)
Формат : AC-3
Формат/Информация : Audio Coding 3
Расширение режима : CM (complete main)
Режим смешивания : DVD-Video
Продолжительность : 43 м.
Вид битрейта : Постоянный
Битрейт : 192 Кбит/сек
Каналы : 2 канала
Расположение каналов : Front: L R
Частота : 48,0 КГц
Битовая глубина : 16 бит
Метод сжатия : С потерями
Размер потока : 59,9 Мбайт (6%)

Меню

Общее
Полное имя : D:Я тебя никому не отдам DVD5VIDEO_TSVTS_01_2.VOB
Формат : MPEG-PS
Размер файла : 1024 Мбайт
Продолжительность : 4 с. 920 мс.
Общий поток : 1746 Мбит/сек

Видео
Идентификатор : 224 (0xE0)
Формат : MPEG Video
Версия формата : Version 2
Профиль формата : Main@Main
Параметр BVOP формата : Да
Параметр матрицы формата : По умолчанию
Параметры GOP формата : M=3, N=15
Продолжительность : 4 с. 920 мс.
Вид битрейта : Переменный
Битрейт : 1711 Мбит/сек
Номинальный битрейт : 9000 Кбит/сек
Ширина : 720 пикс.
Высота : 576 пикс.
Соотношение сторон : 16:9
Частота кадров : 25,000 кадр/сек
Стандарт вещания : PAL
Цветовое пространство : YUV
Подвыборка цветности : 4:2:0
Битовая глубина : 8 бит
Тип развёртки : Чересстрочная
Порядок развёртки : Верхнее поле первое
Метод сжатия : С потерями
Бит/(Пиксели*Кадры) : 165.025
Размер потока : 1004 Мбайт (98%)

Аудио
Идентификатор : 189 (0xBD)-128 (0x80)
Формат : AC-3
Формат/Информация : Audio Coding 3
Расширение режима : CM (complete main)
Режим смешивания : DVD-Video
Продолжительность : 4 с. 920 мс.
Вид битрейта : Постоянный
Битрейт : 192 Кбит/сек
Каналы : 2 канала
Расположение каналов : Front: L R
Частота : 48,0 КГц
Битовая глубина : 16 бит
Метод сжатия : С потерями
Задержка видео : -784 мс.
Размер потока : 115 Кбайт (0%)

Меню

Общее
Полное имя : D:Я тебя никому не отдам DVD5VIDEO_TSVTS_01_3.VOB
Формат : MPEG-PS
Размер файла : 1024 Мбайт
Продолжительность : 6 с. 120 мс.
Общий поток : 1404 Мбит/сек

Видео
Идентификатор : 224 (0xE0)
Формат : MPEG Video
Версия формата : Version 2
Профиль формата : Main@Main
Параметр BVOP формата : Да
Параметр матрицы формата : По умолчанию
Параметры GOP формата : M=3, N=15
Продолжительность : 6 с. 120 мс.
Вид битрейта : Переменный
Битрейт : 1375 Мбит/сек
Номинальный битрейт : 9000 Кбит/сек
Ширина : 720 пикс.
Высота : 576 пикс.
Соотношение сторон : 16:9
Частота кадров : 25,000 кадр/сек
Стандарт вещания : PAL
Цветовое пространство : YUV
Подвыборка цветности : 4:2:0
Битовая глубина : 8 бит
Тип развёртки : Чересстрочная
Порядок развёртки : Верхнее поле первое
Метод сжатия : С потерями
Бит/(Пиксели*Кадры) : 132.664
Размер потока : 1003 Мбайт (98%)

Аудио
Идентификатор : 189 (0xBD)-128 (0x80)
Формат : AC-3
Формат/Информация : Audio Coding 3
Расширение режима : CM (complete main)
Режим смешивания : DVD-Video
Продолжительность : 6 с. 120 мс.
Вид битрейта : Постоянный
Битрейт : 192 Кбит/сек
Каналы : 2 канала
Расположение каналов : Front: L R
Частота : 48,0 КГц
Битовая глубина : 16 бит
Метод сжатия : С потерями
Задержка видео : -664 мс.
Размер потока : 143 Кбайт (0%)

Меню

Общее
Полное имя : D:Я тебя никому не отдам DVD5VIDEO_TSVTS_01_4.VOB
Формат : MPEG-PS
Размер файла : 1024 Мбайт
Продолжительность : 5 с. 640 мс.
Общий поток : 1523 Мбит/сек

Видео
Идентификатор : 224 (0xE0)
Формат : MPEG Video
Версия формата : Version 2
Профиль формата : Main@Main
Параметр BVOP формата : Да
Параметр матрицы формата : По умолчанию
Параметры GOP формата : M=3, N=15
Продолжительность : 5 с. 640 мс.
Вид битрейта : Переменный
Битрейт : 1493 Мбит/сек
Номинальный битрейт : 9000 Кбит/сек
Ширина : 720 пикс.
Высота : 576 пикс.
Соотношение сторон : 16:9
Частота кадров : 25,000 кадр/сек
Стандарт вещания : PAL
Цветовое пространство : YUV
Подвыборка цветности : 4:2:0
Битовая глубина : 8 бит
Тип развёртки : Чересстрочная
Порядок развёртки : Верхнее поле первое
Метод сжатия : С потерями
Бит/(Пиксели*Кадры) : 143.956
Размер потока : 1003 Мбайт (98%)

Аудио
Идентификатор : 189 (0xBD)-128 (0x80)
Формат : AC-3
Формат/Информация : Audio Coding 3
Расширение режима : CM (complete main)
Режим смешивания : DVD-Video
Продолжительность : 5 с. 640 мс.
Вид битрейта : Постоянный
Битрейт : 192 Кбит/сек
Каналы : 2 канала
Расположение каналов : Front: L R
Частота : 48,0 КГц
Битовая глубина : 16 бит
Метод сжатия : С потерями
Задержка видео : -760 мс.
Размер потока : 132 Кбайт (0%)

Меню

Общее
Полное имя : D:Я тебя никому не отдам DVD5VIDEO_TSVTS_01_5.VOB
Формат : MPEG-PS
Размер файла : 69,8 Мбайт
Продолжительность : 3 м. 47 с.
Общий поток : 2568 Кбит/сек

Видео
Идентификатор : 224 (0xE0)
Формат : MPEG Video
Версия формата : Version 2
Профиль формата : Main@Main
Параметр BVOP формата : Да
Параметр матрицы формата : По умолчанию
Параметры GOP формата : M=3, N=15
Продолжительность : 3 м. 47 с.
Вид битрейта : Переменный
Битрейт : 2325 Кбит/сек
Номинальный битрейт : 9000 Кбит/сек
Ширина : 720 пикс.
Высота : 576 пикс.
Соотношение сторон : 16:9
Частота кадров : 25,000 кадр/сек
Стандарт вещания : PAL
Цветовое пространство : YUV
Подвыборка цветности : 4:2:0
Битовая глубина : 8 бит
Тип развёртки : Чересстрочная
Порядок развёртки : Верхнее поле первое
Метод сжатия : С потерями
Бит/(Пиксели*Кадры) : 0.224
Размер потока : 63,1 Мбайт (91%)

Аудио
Идентификатор : 189 (0xBD)-128 (0x80)
Формат : AC-3
Формат/Информация : Audio Coding 3
Расширение режима : CM (complete main)
Режим смешивания : DVD-Video
Продолжительность : 3 м. 47 с.
Вид битрейта : Постоянный
Битрейт : 192 Кбит/сек
Каналы : 2 канала
Расположение каналов : Front: L R
Частота : 48,0 КГц
Битовая глубина : 16 бит
Метод сжатия : С потерями
Задержка видео : -744 мс.
Размер потока : 5,22 Мбайт (7%)

Меню

Title: Ya tebya ne otdam
Size: 4.13 Gb ( 4 328 438 KBytes ) - DVD-5
Enabled regions: 1, 2, 3, 4, 5, 6, 7, 8

VTS_01 :
Play Length: 00:44:35+00:45:54+00:45:30+00:42:05
Video: PAL 16:9 (720x576) VBR, Auto Letterboxed
Audio:
Russian (Dolby AC3, 2 ch)

Menu Video:
PAL 16:9 (720x576) VBR
Auto Letterboxed
Menu Subtitles:
Not specified
Menu Russian Language Unit :
Root Menu




   Похожие торренты   Торрент   Размер 
В этой теме нет новых непрочитанных сообщений. Я тебя никому не отдам [01-04 из 04] (2010) DVB

3 | 16

7.07 ГБ

В этой теме нет новых непрочитанных сообщений. Я тебя никому не отдам [01-04 из 04] (2010) HDTVRip-AVC

28 | 3

2.07 ГБ

В этой теме нет новых непрочитанных сообщений. Я тебя никому не отдам [01-04 из 04] (2010) HDTV 1080i

2 | 2

10.73 ГБ

В этой теме нет новых непрочитанных сообщений. Я тебя никому не отдам [01-04 из 04] (2010) SATRip от КинозалSat

23 | 5

2.15 ГБ

В этой теме нет новых непрочитанных сообщений. Я тебя никому не отдам [01-04 из 04] (2010) WEB-DL 720p от ExKinoRay

59 | 10

4.18 ГБ

В этой теме нет новых непрочитанных сообщений. Я тебя никому не отдам [01-04 из 04] (2010) WEB-DLRip от GeneralFilm

157 | 40

2.54 ГБ

В этой теме нет новых непрочитанных сообщений. Я тебя никому не отдам (4 серии из 4) (2010) DVDRip от Giorgi0412

10 | 4

2.14 ГБ




Вы не можете начинать темы
Вы не можете отвечать на сообщения
Вы не можете редактировать свои сообщения
Вы не можете удалять свои сообщения
Вы не можете добавлять вложения

Перейти:  
Для Мосгорсуда, Роскомнадзора и рекламодателей: mosgorsud-torrent[собачка]yandex.ru
 Вход
ppkBB3cker v.2 © 2008-2014 @ PPK
[ Time : 0.537s | 14 Queries | GZIP : Off ]

Торрент трекер RUTOR.IN, Не можете зайти на rutor.org? Какой новый адрес рутор? Какое зеркало рутор? Не работает rutor.org и зеркала? Тогда наш торрент специально для вас. Rutor.in неофициальное зеркало rutor. В случае если у Вас заблокирован rutor или вдруг Вы не можете на него зайти, то Вы без труда сможете скачать бесплатно и без рекламы последние новинки кино, игр, сериалов и прочего у нас, на Rutor.in. Не нужно использовать прокси, чтобы зайти на рутор, достаточно воспользоваться нашим ресурсом. Все новые фильмы, игры, сериалы, книги и музыка за 2013 и 2014 годы через торрент бесплатно. Скачивайте фильмы в хорошем качестве, игры для пк, xbox, playstation без регистрации. У нас вы найдете новые Зарубежные сериалы и Русские сериалы 2013, 2014, 2015 годов. Оставайтесь с нами, качайте любимые фильмы, игры, сериалы, книги и музыку.