img image001 image001 image001 image001 image001 image001 image001 image001 image001 image001 image001 image001 image001 image001 image001

Planets Sun Sun Sun
Статистика раздачи
Автор: Снежана | Размер: 10.73 ГБ | Добавлен: 25 июл 2013
Раздают: 2    Качают: 2
Скачать торрент
Скачать торрент
Описание торрента

СообщениеДобавлено: 25 июл 2013 

#77
Название: Я тебя никому не отдам
Год выпуска: 2010
Производство: Star Media
Жанр: Мелодрама
Продолжительность: ~ 00:45:00
Субтитры: Отсутствуют
Страна: Россия, Украина
Режиссёр: Владимир Янощук
Перевод: оригинал (русский)

В ролях:Марина Александрова, Анатолий Пашинин, Евгений Пронин, Агния Кузнецова, Михаил Жигалов, Раиса Рязанова, Ада Роговцева, Анна Уколова

Описание: Светлана была перспективной пианисткой и счастливой женой. Но в результате несчастного случая у нее оказались серьезно повреждены кисти рук, и с работой пришлось проститься. Выйти из депрессии ей помогает муж Александр - водитель автобуса. Но у него самого все непросто: ребенка от него ждет не только жена, но и кондукторша Рита. Расстроенный мужчина теряет бдительность на дороге, сбивает женщину и попадает в тюрьму.
Светлана в родах теряет малыша. Спустя некоторое время она находит под дверью месячного подкидыша - девочку. Это дочь Риты и Александра. Почувствовав, что младенец - путь к ее спасению, Светлана едет с ним в глухое село и пять лет живет спокойно: работает на почте и дает уроки музыки бывшему воину-афганцу. Ученик влюбляется в учительницу, и в это время Александр, отбыв наказание, приезжает в село…





Качество: HDTV 1080i
Формат: TS
Видео кодек: H.264
Аудио кодек: MPEG
Видео: MPEG4 Video (H264) 1920x1080 25.00fps ~8 516 Кбит/сек
Аудио: MPEG Audio , Layer 2, 48000Hz stereo, 192kbps

General
ID : 1 (0x1)
Complete name : C:01. Я тебя никому не отдам.ts
Format : MPEG-TS
File size : 2.85 GiB
Duration : 44mn 33s
Overall bit rate : 9 162 Kbps

Video
ID : 1700 (0x6A4)
Menu ID : 1 (0x1)
Format : AVC
Format/Info : Advanced Video Codec
Format profile : Main@L4.0
Format settings, CABAC : Yes
Format settings, ReFrames : 4 frames
Codec ID : 27
Duration : 44mn 33s
Bit rate : 8 516 Kbps
Width : 1 920 pixels
Height : 1 080 pixels
Display aspect ratio : 16:9
Frame rate : 25.000 fps
Standard : Component
Color space : YUV
Chroma subsampling : 4:2:0
Bit depth : 8 bits
Scan type : Interlaced
Scan order : Top Field First
Bits/(Pixel*Frame) : 0.164
Stream size : 2.65 GiB (93%)
Color primaries : BT.709-5, BT.1361, IEC 61966-2-4, SMPTE RP177
Transfer characteristics : BT.709-5, BT.1361
Matrix coefficients : BT.709-5, BT.1361, IEC 61966-2-4 709, SMPTE RP177

Audio
ID : 1710 (0x6AE)
Menu ID : 1 (0x1)
Format : MPEG Audio
Format version : Version 1
Format profile : Layer 2
Codec ID : 3
Duration : 44mn 33s
Bit rate mode : Constant
Bit rate : 192 Kbps
Channel(s) : 2 channels
Sampling rate : 48.0 KHz
Compression mode : Lossy
Delay relative to video : -40ms
Stream size : 61.2 MiB (2%)
Language : Russian




   Похожие торренты   Торрент   Размер 
В этой теме нет новых непрочитанных сообщений. Я тебя никому не отдам [01-04 из 04] (2010) DVB

3 | 16

7.07 ГБ

В этой теме нет новых непрочитанных сообщений. Я тебя никому не отдам [01-04 из 04] (2010) DVD5

2 | 3

4.13 ГБ

В этой теме нет новых непрочитанных сообщений. Я тебя никому не отдам [01-04 из 04] (2010) HDTVRip-AVC

28 | 3

2.07 ГБ

В этой теме нет новых непрочитанных сообщений. Я тебя никому не отдам [01-04 из 04] (2010) WEB-DL 720p от ExKinoRay

59 | 10

4.18 ГБ

В этой теме нет новых непрочитанных сообщений. Я тебя никому не отдам [01-04 из 04] (2010) WEB-DLRip от GeneralFilm

157 | 40

2.54 ГБ

В этой теме нет новых непрочитанных сообщений. Я тебя никому не отдам [01-04 из 04] (2010) SATRip от КинозалSat

23 | 5

2.15 ГБ

В этой теме нет новых непрочитанных сообщений. Я тебя никому не отдам (4 серии из 4) (2010) DVDRip от Giorgi0412

10 | 4

2.14 ГБ




Вы не можете начинать темы
Вы не можете отвечать на сообщения
Вы не можете редактировать свои сообщения
Вы не можете удалять свои сообщения
Вы не можете добавлять вложения

Перейти:  
Для Мосгорсуда, Роскомнадзора и рекламодателей: mosgorsud-torrent[собачка]yandex.ru
 Вход
ppkBB3cker v.2 © 2008-2014 @ PPK
[ Time : 0.033s | 14 Queries | GZIP : Off ]

Торрент трекер RUTOR.IN, Не можете зайти на rutor.org? Какой новый адрес рутор? Какое зеркало рутор? Не работает rutor.org и зеркала? Тогда наш торрент специально для вас. Rutor.in неофициальное зеркало rutor. В случае если у Вас заблокирован rutor или вдруг Вы не можете на него зайти, то Вы без труда сможете скачать бесплатно и без рекламы последние новинки кино, игр, сериалов и прочего у нас, на Rutor.in. Не нужно использовать прокси, чтобы зайти на рутор, достаточно воспользоваться нашим ресурсом. Все новые фильмы, игры, сериалы, книги и музыка за 2013 и 2014 годы через торрент бесплатно. Скачивайте фильмы в хорошем качестве, игры для пк, xbox, playstation без регистрации. У нас вы найдете новые Зарубежные сериалы и Русские сериалы 2013, 2014, 2015 годов. Оставайтесь с нами, качайте любимые фильмы, игры, сериалы, книги и музыку.