img image001 image001 image001 image001 image001 image001 image001 image001 image001 image001 image001 image001 image001 image001 image001

Planets Sun Sun Sun
Статистика раздачи
Автор: Снежана | Размер: 28.79 ГБ | Добавлен: 25 июл 2013
Раздают: 1    Качают: 1
Скачать торрент
Скачать торрент
Описание торрента

СообщениеДобавлено: 25 июл 2013 

#77

Год выпуска: 2013
Производство: ЗАО "Всемирные Русские Студии"
Жанр: Мелодрама
Продолжительность:12х 00:50:00 / серия
Субтитры: Отсутствуют

Режиссёр: Дарья Полторацкая

В ролях: Нелли Уварова, Олег Тактаров, Юрий Батурин, Виктория Фишер, Кристина Бабушкина, Григорий Калинин, Дмитрий Блохин, Сергей Векслер и другие.

Описание: Бывший муж певицы Натальи отказался платить алименты, и тогда женщина решила стать судебным приставом, чтобы заставить всех горе-отцов вспомнить о своем долге. "Тем, для кого эти алименты – единственная надежда на нормальную жизнь ребенка, я обещаю: за каждую вашу пролитую слезу нерадивые папаши ответят соответствующим рублем", - эти слова стали рабочим девизом Натальи. В России проживает сто сорок миллионов человек. Из них, по статистике, 10 миллионов обязаны выплачивать алименты. А 70 миллионов должны банкам по разного рода кредитам. То есть, больше половины населения страны являются должниками. Прибавим сюда гражданские споры по имущественным вопросам. И поймем, что практически все население с большой долей уверенности можно разделить на тех, кто доложен и на тех, кому должны. Фильм расскажет о рабочих буднях судебных приставов, о долге и любви. По сюжету главные герои ведут "охоту" на отцов, укрывающихся от уплаты алиментов. Кстати, для России это очень актуальная проблема — отцов, которые "забывают" о своих детях после развода, в нашей стране многие тысячи.

Сэмпл: http://multi-up.com/867544

Доп. информация: Релиз -


Рип чистый. Без посторонних надписей. Выкладывается как есть.

Качество: HDTV 1080i
Контейнер: TS
Видео кодек: AVC
Аудио кодек: AC3
Видео: 1920x1080 (16:9) 25.000 fps 5 195 Kbps, 0.100 bit/pixel
Аудио: 384 Kbps, 48000Hz, 2 chanels


GeneralID : 1 (0x1)Complete name : L:ВЫКЛАДКАБывшая жена (2013, Мелодрама, HDTV) (MYDIMKA)�1 серия.tsFormat : MPEG-TSFile size : 2.10 GiBDuration : 51mn 5sOverall bit rate mode : VariableOverall bit rate : 5 873 Kbps

VideoID : 69 (0x45)Menu ID : 1 (0x1)Format : AVCFormat/Info : Advanced Video CodecFormat profile : High@L4.0Format settings, CABAC : YesFormat settings, ReFrames : 3 framesCodec ID : 27Duration : 51mn 5sBit rate : 5 195 KbpsWidth : 1 920 pixelsHeight : 1 080 pixelsDisplay aspect ratio : 16:9Frame rate : 25.000 fpsStandard : ComponentColor space : YUVChroma subsampling : 4:2:0Bit depth : 8 bitsScan type : InterlacedScan order : Top Field FirstBits/(Pixel*Frame) : 0.100Stream size : 1.85 GiB (88%)Color primaries : BT.709Transfer characteristics : BT.709Matrix coefficients : BT.709

AudioID : 68 (0x44)Menu ID : 1 (0x1)Format : AC-3Format/Info : Audio Coding 3Mode extension : CM (complete main)Format settings, Endianness : BigCodec ID : 129Duration : 51mn 5sBit rate mode : ConstantBit rate : 384 KbpsChannel(s) : 2 channelsChannel positions : Front: L RSampling rate : 48.0 KHzBit depth : 16 bitsCompression mode : LossyStream size : 140 MiB (7%)Language : English



   Похожие торренты   Торрент   Размер 
В этой теме нет новых непрочитанных сообщений. Бывшая жена [01-12 из 12] (2013) HDTVRip от Files-x

70 | 9

7.05 ГБ

В этой теме нет новых непрочитанных сообщений. Бывшая жена [01-12 из 12] (2013) HDTVRip 720p

25 | 17

17.4 ГБ

В этой теме нет новых непрочитанных сообщений. Жена офицера [01-08] (2013) HDTV 1080i

0 | 3

20.74 ГБ

В этой теме нет новых непрочитанных сообщений. Слишком красивая жена [01-02 из 02] (2013) HDTV 1080i

85 | 18

10.75 ГБ

В этой теме нет новых непрочитанных сообщений. Новогодняя жена (2012) HDTV 1080i

84 | 8

4.96 ГБ

В этой теме нет новых непрочитанных сообщений. Жена Штирлица (2012) HDTV 1080i

2 | 3

5.36 ГБ

В этой теме нет новых непрочитанных сообщений. Жена по совместительству (2015) HDTV 1080i

188 | 21

5.34 ГБ




Вы не можете начинать темы
Вы не можете отвечать на сообщения
Вы не можете редактировать свои сообщения
Вы не можете удалять свои сообщения
Вы не можете добавлять вложения

Перейти:  
Для Мосгорсуда, Роскомнадзора и рекламодателей: mosgorsud-torrent[собачка]yandex.ru
 Вход
ppkBB3cker v.2 © 2008-2014 @ PPK
[ Time : 0.054s | 15 Queries | GZIP : Off ]

Торрент трекер RUTOR.IN, Не можете зайти на rutor.org? Какой новый адрес рутор? Какое зеркало рутор? Не работает rutor.org и зеркала? Тогда наш торрент специально для вас. Rutor.in неофициальное зеркало rutor. В случае если у Вас заблокирован rutor или вдруг Вы не можете на него зайти, то Вы без труда сможете скачать бесплатно и без рекламы последние новинки кино, игр, сериалов и прочего у нас, на Rutor.in. Не нужно использовать прокси, чтобы зайти на рутор, достаточно воспользоваться нашим ресурсом. Все новые фильмы, игры, сериалы, книги и музыка за 2013 и 2014 годы через торрент бесплатно. Скачивайте фильмы в хорошем качестве, игры для пк, xbox, playstation без регистрации. У нас вы найдете новые Зарубежные сериалы и Русские сериалы 2013, 2014, 2015 годов. Оставайтесь с нами, качайте любимые фильмы, игры, сериалы, книги и музыку.