img image001 image001 image001 image001 image001 image001 image001 image001 image001 image001 image001 image001 image001 image001 image001

Planets Sun Sun Sun
Статистика раздачи
Автор: Снежана | Размер: 11.19 ГБ | Добавлен: 25 июл 2013
Раздают: 1    Качают: 25
Скачать торрент
Скачать торрент
Описание торрента

СообщениеДобавлено: 25 июл 2013 

#77
Год выпуска: 2012
Страна: Россия
Студия: Централ Партнершип
Жанр: биография
Продолжительность: ~ 00:45:00 / серия

Перевод: не требуется
Субтитры: нет
Оригинальная аудиодорожка: русский / R5 (лицензия)

Режиссер: Тимур Кабулов

В ролях: Юрий Кузнецов-Таёжный, Александр Домогаров, Иван Добронравов, Сергей Газаров, Владимир Зайцев, Илья Древнов, Ольга Смирнова, Дарья Калмыкова, Диана Корсс, Александр Кузнецов...

Описание: Михаил Воробьев, прославившийся под псевдонимом Круг, - один из популярных в народе исполнителей шансона 1990-х годов, автор «Владимирского централа», «Кольщика» и «Куполов". «Легенды о Круге» первая художественная кинобиография певца. Михаил Круг был застрелен у себя дома в Твери в июле 2002 года. На тот момент ему было 40 лет. Убийство певца до сих пор не раскрыто, однако в фильме «Легенды о Круге» будет изложена авторская версия этих драматических событий. Фильм рассказывает о судьбе известного автора и исполнителя песен Михаила Круга. Его жизнь была яркой и насыщенной: концерты, гастроли, выход новых песен. Он очень любил друзей, хорошую компанию, жену и детей. Но смерть настигла его в самом расцвете творческой славы. Тайна гибели Михаила Круга до сих пор не раскрыта, убийца не найден. Это случилось десять лет назад, а песни его живут и по сей день...







Качество: HDTV 1080i
Формат: MKV

Видео: 1920x1080 (16:9), 25.000 fps, H264 ~ 8764 kbps avg, 0.169 bit/pixel
Аудио: 48 kHz, АС3 6 ch, 448 kbps, русский / лицензия R5
Дополнительно: В четвертой серии фильма отсутствует около четырех минут с начала серии (интервью Круга на телевидении). Четвертой серии вообще не повезло, в районе 21-й минуты вырезан кусок песни в 21 секунду, там же артефакт небольшой есть. Таков исходник. http://rutor.org/torrent/284192 вот тут можно посмотреть четвертую серию целиком, поскольку её я делал с лицензионной девятки этого минисериала R5.

Раздача от:
Общее
Полное имя : Легенды о Круге�1.mkv
Формат : Matroska
Версия формата : Version 4 / Version 2
Размер файла : 2,97 Гбайт
Продолжительность : 45 м.
Общий поток : 9399 Кбит/сек
Дата кодирования : UTC 2013-05-29 19:31:21
Программа кодирования : mkvmerge v6.1.0 ('Old Devil') built on Mar 2 2013 14:32:37
Библиотека кодирования : libebml v1.3.0 + libmatroska v1.4.0

Видео
Идентификатор : 1
Формат : AVC
Формат/Информация : Advanced Video Codec
Профиль формата : High@L4.0
Параметр CABAC формата : Да
Параметр ReFrames формата : 3 кадра
Идентификатор кодека : V_MPEG4/ISO/AVC
Продолжительность : 45 м.
Битрейт : 8764 Кбит/сек
Ширина : 1920 пикселей
Высота : 1080 пикселей
Соотношение сторон : 16:9
Режим частоты кадров : Постоянный
Частота кадров : 25,000 кадров/сек
Стандарт вещания : Component
Цветовое пространство : YUV
Субдискретизация насыщенности : 4:2:0
Битовая глубина : 8 бит
Тип развёртки : Чересстрочная
Порядок развёртки : Верхнее поле первое
Бит/(Пиксели*Кадры) : 0.169
Размер потока : 2,77 Гбайт (93%)
Язык : Russian
Default : Да
Forced : Нет
Основные цвета : BT.709
Характеристики трансфера : BT.709
Коэффициенты матрицы : BT.709

Аудио
Идентификатор : 2
Формат : AC-3
Формат/Информация : Audio Coding 3
Расширение режима : CM (complete main)
Параметр Endianness формата : Big
Идентификатор кодека : A_AC3
Продолжительность : 45 м.
Вид битрейта : Постоянный
Битрейт : 448 Кбит/сек
Каналы : 6 каналов
Расположение каналов : Front: L C R, Side: L R, LFE
Частота : 48,0 КГц
Битовая глубина : 16 бит
Метод сжатия : С потерями
Размер потока : 145 Мбайт (5%)
Язык : Russian
Default : Да
Forced : Нет



http://rutor.org/torrent/274684

Заменил звук конкурента 2.0 на лицензионный АС3 5.1 R5: http://screenshotcomparison.com/comparison/26123



   Похожие торренты   Торрент   Размер 
В этой теме нет новых непрочитанных сообщений. Легенды о Круге [01-04 из 04] (2012) Blu-ray 1080i от Youtracker и HDCLUB

0 | 4

42.91 ГБ

В этой теме нет новых непрочитанных сообщений. Легенды о Круге [01-04 из 04] (2012) BDRemux 1080i от Youtracker

0 | 3

40.68 ГБ

В этой теме нет новых непрочитанных сообщений. Легенды о Круге [01-04 из 04] (2013) HDTV 1080i

165 | 39

11.33 ГБ

В этой теме нет новых непрочитанных сообщений. Легенды о Круге [01-04 из 04] (2012) BDRip от Youtracker

968 | 107

3.1 ГБ

В этой теме нет новых непрочитанных сообщений. Легенды о Круге [01-04 из 04] (2012) BDRip-AVC от Youtracker

631 | 20

3.65 ГБ

В этой теме нет новых непрочитанных сообщений. Легенды о Круге [01-04 из 04] (2012) HDTVRip, DVDRip от Youtracker

29 | 29

3.02 ГБ

В этой теме нет новых непрочитанных сообщений. Легенды о Круге [01-04 из 04] (2012) HDTVRip-AVC, DVDRip-AVC от Youtracker

156 | 4

3.02 ГБ




Вы не можете начинать темы
Вы не можете отвечать на сообщения
Вы не можете редактировать свои сообщения
Вы не можете удалять свои сообщения
Вы не можете добавлять вложения

Перейти:  
Для Мосгорсуда, Роскомнадзора и рекламодателей: mosgorsud-torrent[собачка]yandex.ru
 Вход
ppkBB3cker v.2 © 2008-2014 @ PPK
[ Time : 0.082s | 17 Queries | GZIP : Off ]

Торрент трекер RUTOR.IN, Не можете зайти на rutor.org? Какой новый адрес рутор? Какое зеркало рутор? Не работает rutor.org и зеркала? Тогда наш торрент специально для вас. Rutor.in неофициальное зеркало rutor. В случае если у Вас заблокирован rutor или вдруг Вы не можете на него зайти, то Вы без труда сможете скачать бесплатно и без рекламы последние новинки кино, игр, сериалов и прочего у нас, на Rutor.in. Не нужно использовать прокси, чтобы зайти на рутор, достаточно воспользоваться нашим ресурсом. Все новые фильмы, игры, сериалы, книги и музыка за 2013 и 2014 годы через торрент бесплатно. Скачивайте фильмы в хорошем качестве, игры для пк, xbox, playstation без регистрации. У нас вы найдете новые Зарубежные сериалы и Русские сериалы 2013, 2014, 2015 годов. Оставайтесь с нами, качайте любимые фильмы, игры, сериалы, книги и музыку.
cron