img image001 image001 image001 image001 image001 image001 image001 image001 image001 image001 image001 image001 image001 image001 image001

Planets Sun Sun Sun
Статистика раздачи
Автор: Снежана | Размер: 3.02 ГБ | Добавлен: 25 июл 2013
Раздают: 29    Качают: 29
Скачать торрент
Скачать торрент
Описание торрента

СообщениеДобавлено: 25 июл 2013 

#77
Год выпуска: 2012
Страна: Россия
Студия: Централ Партнершип
Жанр: биография
Продолжительность: ~ 00:45:00 / серия

Перевод: не требуется
Субтитры: нет
Оригинальная аудиодорожка: русский

Режиссер: Тимур Кабулов

В ролях: Юрий Кузнецов-Таёжный, Александр Домогаров, Иван Добронравов, Сергей Газаров, Владимир Зайцев, Илья Древнов, Ольга Смирнова, Дарья Калмыкова, Диана Корсс, Александр Кузнецов...

Описание: Михаил Воробьев, прославившийся под псевдонимом Круг, - один из популярных в народе исполнителей шансона 1990-х годов, автор «Владимирского централа», «Кольщика» и «Куполов". «Легенды о Круге» первая художественная кинобиография певца. Михаил Круг был застрелен у себя дома в Твери в июле 2002 года. На тот момент ему было 40 лет. Убийство певца до сих пор не раскрыто, однако в фильме «Легенды о Круге» будет изложена авторская версия этих драматических событий. Фильм рассказывает о судьбе известного автора и исполнителя песен Михаила Круга. Его жизнь была яркой и насыщенной: концерты, гастроли, выход новых песен. Он очень любил друзей, хорошую компанию, жену и детей. Но смерть настигла его в самом расцвете творческой славы. Тайна гибели Михаила Круга до сих пор не раскрыта, убийца не найден. Это случилось десять лет назад, а песни его живут и по сей день..







Качество 1: HDTVRip (HDTV 1080i, 1 - 3 серии)
Качество 2: DVDRip (DVD9 R5, 4 серия)
Формат: AVI

Видео: 720x400 (16:9), 25.000 fps, XViD ~ 2000 kbps avg, 0.278 bit/pixel
Аудио: 48 kHz, АС3 6 ch, 448 kbps, русский / лицензия R5
Дополнительно: Четвертую серию фильма сделал с DVD9 R5, поскольку в HD версии отсутствует около четырех минут с начала серии (интервью Круга на телевидении). Четвертой серии вообще не повезло, в районе 21-й минуты вырезан кусок песни в 21 секунду, там же артефакт небольшой есть. Таков HD исходник.

Раздача от:
Общее
Полное имя : Legendy.o.Kruge.2012.O.HDTVRip_[Youtracker]_be_avproh�1.avi
Формат : AVI
Формат/Информация : Audio Video Interleave
Размер файла : 760 Мбайт
Продолжительность : 43 м.
Общий поток : 2457 Кбит/сек
Программа кодирования : VirtualDubModRus 1.5.10.2 (build 2542/release)
Библиотека кодирования : VirtualDubMod build 2542/release

Видео
Идентификатор : 0
Формат : MPEG-4 Visual
Профиль формата : Advanced Simple@L5
Параметр BVOP формата : 1
Параметр QPel формата : Нет
Параметр GMC формата : Без точки перехода
Параметр матрицы формата : Выборочная
Идентификатор кодека : XVID
Идентификатор кодека/Подсказка : XviD
Продолжительность : 43 м.
Битрейт : 2000 Кбит/сек
Ширина : 720 пикселей
Высота : 400 пикселей
Соотношение сторон : 16:9
Частота кадров : 25,000 кадров/сек
Цветовое пространство : YUV
Субдискретизация насыщенности : 4:2:0
Битовая глубина : 8 бит
Тип развёртки : Прогрессивная
Метод сжатия : С потерями
Бит/(Пиксели*Кадры) : 0.278
Размер потока : 619 Мбайт (81%)
Библиотека кодирования : XviD 65

Аудио
Идентификатор : 1
Формат : AC-3
Формат/Информация : Audio Coding 3
Расширение режима : CM (complete main)
Параметр Endianness формата : Big
Идентификатор кодека : 2000
Продолжительность : 43 м.
Вид битрейта : Постоянный
Битрейт : 448 Кбит/сек
Каналы : 6 каналов
Расположение каналов : Front: L C R, Side: L R, LFE
Частота : 48,0 КГц
Битовая глубина : 16 бит
Метод сжатия : С потерями
Размер потока : 139 Мбайт (18%)
Выравнивание : Разделение по промежуткам
Продолжительность промежутка : 40 мс. (1,00 видеокадр)
Время предзагрузки промежутка : 500 мс.

Общее
Полное имя : Legendy.o.Kruge.2012.O.HDTVRip_[Youtracker]_be_avproh�4.avi
Формат : AVI
Формат/Информация : Audio Video Interleave
Размер файла : 787 Мбайт
Продолжительность : 44 м.
Общий поток : 2450 Кбит/сек
Программа кодирования : VirtualDubModRus 1.5.10.2 (build 2542/release)
Библиотека кодирования : VirtualDubMod build 2542/release

Видео
Идентификатор : 0
Формат : MPEG-4 Visual
Профиль формата : Advanced Simple@L5
Параметр BVOP формата : 1
Параметр QPel формата : Нет
Параметр GMC формата : Без точки перехода
Параметр матрицы формата : Выборочная
Идентификатор кодека : XVID
Идентификатор кодека/Подсказка : XviD
Продолжительность : 44 м.
Битрейт : 1992 Кбит/сек
Ширина : 720 пикселей
Высота : 400 пикселей
Соотношение сторон : 16:9
Частота кадров : 25,000 кадров/сек
Цветовое пространство : YUV
Субдискретизация насыщенности : 4:2:0
Битовая глубина : 8 бит
Тип развёртки : Прогрессивная
Метод сжатия : С потерями
Бит/(Пиксели*Кадры) : 0.277
Размер потока : 640 Мбайт (81%)
Библиотека кодирования : XviD 65

Аудио
Идентификатор : 1
Формат : AC-3
Формат/Информация : Audio Coding 3
Расширение режима : CM (complete main)
Параметр Endianness формата : Big
Идентификатор кодека : 2000
Продолжительность : 44 м.
Вид битрейта : Постоянный
Битрейт : 448 Кбит/сек
Каналы : 6 каналов
Расположение каналов : Front: L C R, Side: L R, LFE
Частота : 48,0 КГц
Битовая глубина : 16 бит
Метод сжатия : С потерями
Размер потока : 144 Мбайт (18%)
Выравнивание : Разделение по промежуткам
Продолжительность промежутка : 40 мс. (1,00 видеокадр)
Время предзагрузки промежутка : 500 мс.



Заменил звук у конкурентов 2.0 на лицензионный АС3 5.1 R5: http://screenshotcomparison.com/comparison/26123

SATRip: http://rutor.org/torrent/274111/ http://screenshotcomparison.com/comparison/26144 (сравнение с DVDRip, четвертая серия).

HDTVRip: http://rutor.org/torrent/274497/ http://screenshotcomparison.com/comparison/26145 без комментариев.



   Похожие торренты   Торрент   Размер 
В этой теме нет новых непрочитанных сообщений. Легенды о Круге [01-04 из 04] (2012) HDTVRip-AVC, DVDRip-AVC от Youtracker

156 | 4

3.02 ГБ

В этой теме нет новых непрочитанных сообщений. Легенды о Круге [01-04 из 04] (2012) BDRip от Youtracker

968 | 107

3.1 ГБ

В этой теме нет новых непрочитанных сообщений. Легенды о Круге [01-04 из 04] (2012) BDRip-AVC от Youtracker

631 | 20

3.65 ГБ

В этой теме нет новых непрочитанных сообщений. Легенды о Круге [01-04 из 04] (2012) Blu-ray 1080i от Youtracker и HDCLUB

0 | 4

42.91 ГБ

В этой теме нет новых непрочитанных сообщений. Легенды о Круге [01-04 из 04] (2012) DVD9 R5 от Youtracker | лицензия

86 | 6

6.83 ГБ

В этой теме нет новых непрочитанных сообщений. Легенды о Круге [01-04 из 04] (2012) BDRip 1080p от Youtracker

35 | 15

14.51 ГБ

В этой теме нет новых непрочитанных сообщений. Легенды о Круге [01-04 из 04] (2012) BDRemux 1080i от Youtracker

0 | 3

40.68 ГБ




Вы не можете начинать темы
Вы не можете отвечать на сообщения
Вы не можете редактировать свои сообщения
Вы не можете удалять свои сообщения
Вы не можете добавлять вложения

Перейти:  
Для Мосгорсуда, Роскомнадзора и рекламодателей: mosgorsud-torrent[собачка]yandex.ru
 Вход
ppkBB3cker v.2 © 2008-2014 @ PPK
[ Time : 0.037s | 15 Queries | GZIP : Off ]

Торрент трекер RUTOR.IN, Не можете зайти на rutor.org? Какой новый адрес рутор? Какое зеркало рутор? Не работает rutor.org и зеркала? Тогда наш торрент специально для вас. Rutor.in неофициальное зеркало rutor. В случае если у Вас заблокирован rutor или вдруг Вы не можете на него зайти, то Вы без труда сможете скачать бесплатно и без рекламы последние новинки кино, игр, сериалов и прочего у нас, на Rutor.in. Не нужно использовать прокси, чтобы зайти на рутор, достаточно воспользоваться нашим ресурсом. Все новые фильмы, игры, сериалы, книги и музыка за 2013 и 2014 годы через торрент бесплатно. Скачивайте фильмы в хорошем качестве, игры для пк, xbox, playstation без регистрации. У нас вы найдете новые Зарубежные сериалы и Русские сериалы 2013, 2014, 2015 годов. Оставайтесь с нами, качайте любимые фильмы, игры, сериалы, книги и музыку.