img image001 image001 image001 image001 image001 image001 image001 image001 image001 image001 image001 image001 image001 image001 image001

Planets Sun Sun Sun
Статистика раздачи
Автор: Снежана | Размер: 3.02 ГБ | Добавлен: 25 июл 2013
Раздают: 156    Качают: 4
Скачать торрент
Скачать торрент
Описание торрента

СообщениеДобавлено: 25 июл 2013 

#77
Год выпуска: 2012
Страна: Россия
Студия: Централ Партнершип
Жанр: биография
Продолжительность: ~ 00:45:00 / серия

Перевод: не требуется
Субтитры: нет
Оригинальная аудиодорожка: русский

Режиссер: Тимур Кабулов

В ролях: Юрий Кузнецов-Таёжный, Александр Домогаров, Иван Добронравов, Сергей Газаров, Владимир Зайцев, Илья Древнов, Ольга Смирнова, Дарья Калмыкова, Диана Корсс, Александр Кузнецов...

Описание: Михаил Воробьев, прославившийся под псевдонимом Круг, - один из популярных в народе исполнителей шансона 1990-х годов, автор «Владимирского централа», «Кольщика» и «Куполов". «Легенды о Круге» первая художественная кинобиография певца. Михаил Круг был застрелен у себя дома в Твери в июле 2002 года. На тот момент ему было 40 лет. Убийство певца до сих пор не раскрыто, однако в фильме «Легенды о Круге» будет изложена авторская версия этих драматических событий. Фильм рассказывает о судьбе известного автора и исполнителя песен Михаила Круга. Его жизнь была яркой и насыщенной: концерты, гастроли, выход новых песен. Он очень любил друзей, хорошую компанию, жену и детей. Но смерть настигла его в самом расцвете творческой славы. Тайна гибели Михаила Круга до сих пор не раскрыта, убийца не найден. Это случилось десять лет назад, а песни его живут и по сей день..







Качество 1: HDTVRip-AVC (HDTV 1080i, 1 - 3 серии)
Качество 2: DVDRip-AVC (DVD9 R5, 4 серия)
Формат: MKV

Видео 1: 1024x576 (16:9), 25.000 fps, H264 ~ 2006 kbps avg, 0.127 bit/pixel (1 - 3 серии)
Видео 2: 720x576@1024x576 (16:9), 25.000 fps, H264 ~ 2006 kbps avg, 0.193 bit/pixel (4 серия)
Аудио: 48 kHz, АС3 6 ch, 448 kbps, русский / лицензия R5
Дополнительно: Четвертую серию фильма сделал с DVD9 R5, поскольку в HD версии отсутствует около четырех минут с начала серии (интервью Круга на телевидении). Четвертой серии вообще не повезло, в районе 21-й минуты вырезан кусок песни в 21 секунду, там же артефакт небольшой есть. Таков HD исходник.

Раздача от:
Общее
Полное имя : Legendy.o.Kruge.2012.O.HDTVRip-AVC_[Youtracker]_by_avproh�1.mkv
Формат : Matroska
Версия формата : Version 4 / Version 2
Размер файла : 766 Мбайт
Продолжительность : 45 м.
Общий поток : 2371 Кбит/сек
Дата кодирования : UTC 2013-05-30 18:04:55
Программа кодирования : mkvmerge v6.1.0 ('Old Devil') built on Mar 2 2013 14:32:37
Библиотека кодирования : libebml v1.3.0 + libmatroska v1.4.0

Видео
Идентификатор : 1
Формат : AVC
Формат/Информация : Advanced Video Codec
Профиль формата : High@L4.1
Параметр CABAC формата : Да
Параметр ReFrames формата : 11 кадров
Идентификатор кодека : V_MPEG4/ISO/AVC
Продолжительность : 45 м.
Битрейт : 1875 Кбит/сек
Номинальный битрейт : 2006 Кбит/сек
Ширина : 1024 пикселя
Высота : 576 пикселей
Соотношение сторон : 16:9
Режим частоты кадров : Постоянный
Частота кадров : 25,000 кадров/сек
Цветовое пространство : YUV
Субдискретизация насыщенности : 4:2:0
Битовая глубина : 8 бит
Тип развёртки : Прогрессивная
Бит/(Пиксели*Кадры) : 0.127
Размер потока : 606 Мбайт (79%)
Библиотека кодирования : x264 core 130 r2273 b3065e6
Настройки программы : cabac=1 / ref=11 / deblock=1:-2:-1 / analyse=0x3:0x113 / me=umh / subme=9 / psy=1 / psy_rd=1.00:0.10 / mixed_ref=1 / me_range=32 / chroma_me=1 / trellis=2 / 8x8dct=1 / cqm=0 / deadzone=21,11 / fast_pskip=1 / chroma_qp_offset=-3 / threads=9 / lookahead_threads=2 / sliced_threads=0 / nr=0 / decimate=1 / interlaced=0 / bluray_compat=0 / constrained_intra=0 / bframes=11 / b_pyramid=2 / b_adapt=2 / b_bias=0 / direct=3 / weightb=1 / open_gop=0 / weightp=2 / keyint=250 / keyint_min=25 / scenecut=40 / intra_refresh=0 / rc_lookahead=80 / rc=2pass / mbtree=1 / bitrate=2006 / ratetol=1.0 / qcomp=0.60 / qpmin=0 / qpmax=69 / qpstep=4 / cplxblur=20.0 / qblur=0.5 / ip_ratio=1.40 / aq=2:0.90
Язык : Russian
Default : Да
Forced : Нет

Аудио
Идентификатор : 2
Формат : AC-3
Формат/Информация : Audio Coding 3
Расширение режима : CM (complete main)
Параметр Endianness формата : Big
Идентификатор кодека : A_AC3
Продолжительность : 45 м.
Вид битрейта : Постоянный
Битрейт : 448 Кбит/сек
Каналы : 6 каналов
Расположение каналов : Front: L C R, Side: L R, LFE
Частота : 48,0 КГц
Битовая глубина : 16 бит
Метод сжатия : С потерями
Размер потока : 145 Мбайт (19%)
Язык : Russian
Default : Да
Forced : Нет

Общее
Полное имя : Legendy.o.Kruge.2012.O.HDTVRip-AVC_[Youtracker]_by_avproh�4.mkv
Формат : Matroska
Версия формата : Version 4 / Version 2
Размер файла : 788 Мбайт
Продолжительность : 44 м.
Общий поток : 2452 Кбит/сек
Дата кодирования : UTC 2013-05-30 18:15:51
Программа кодирования : mkvmerge v6.1.0 ('Old Devil') built on Mar 2 2013 14:32:37
Библиотека кодирования : libebml v1.3.0 + libmatroska v1.4.0

Видео
Идентификатор : 1
Формат : AVC
Формат/Информация : Advanced Video Codec
Профиль формата : High@L4.1
Параметр CABAC формата : Да
Параметр ReFrames формата : 11 кадров
Идентификатор кодека : V_MPEG4/ISO/AVC
Продолжительность : 44 м.
Битрейт : 2006 Кбит/сек
Ширина : 720 пикселей
Высота : 576 пикселей
Соотношение сторон : 16:9
Режим частоты кадров : Постоянный
Частота кадров : 25,000 кадров/сек
Стандарт вещания : PAL
Цветовое пространство : YUV
Субдискретизация насыщенности : 4:2:0
Битовая глубина : 8 бит
Тип развёртки : Прогрессивная
Бит/(Пиксели*Кадры) : 0.193
Размер потока : 628 Мбайт (80%)
Библиотека кодирования : x264 core 130 r2273 b3065e6
Настройки программы : cabac=1 / ref=11 / deblock=1:-2:-1 / analyse=0x3:0x113 / me=umh / subme=9 / psy=1 / psy_rd=1.00:0.20 / mixed_ref=1 / me_range=32 / chroma_me=1 / trellis=1 / 8x8dct=1 / cqm=0 / deadzone=21,11 / fast_pskip=0 / chroma_qp_offset=-3 / threads=9 / lookahead_threads=1 / sliced_threads=0 / nr=0 / decimate=0 / interlaced=0 / bluray_compat=0 / constrained_intra=0 / bframes=8 / b_pyramid=2 / b_adapt=2 / b_bias=0 / direct=3 / weightb=1 / open_gop=0 / weightp=2 / keyint=250 / keyint_min=25 / scenecut=40 / intra_refresh=0 / rc_lookahead=60 / rc=2pass / mbtree=1 / bitrate=2006 / ratetol=1.0 / qcomp=0.60 / qpmin=0 / qpmax=69 / qpstep=4 / cplxblur=20.0 / qblur=0.5 / ip_ratio=1.40 / aq=1:1.00
Язык : Russian
Default : Да
Forced : Нет

Аудио
Идентификатор : 2
Формат : AC-3
Формат/Информация : Audio Coding 3
Расширение режима : CM (complete main)
Параметр Endianness формата : Big
Идентификатор кодека : A_AC3
Продолжительность : 44 м.
Вид битрейта : Постоянный
Битрейт : 448 Кбит/сек
Каналы : 6 каналов
Расположение каналов : Front: L C R, Side: L R, LFE
Частота : 48,0 КГц
Битовая глубина : 16 бит
Метод сжатия : С потерями
Размер потока : 144 Мбайт (18%)
Язык : Russian
Default : Да
Forced : Нет







   Похожие торренты   Торрент   Размер 
В этой теме нет новых непрочитанных сообщений. Легенды о Круге [01-04 из 04] (2012) HDTVRip, DVDRip от Youtracker

29 | 29

3.02 ГБ

В этой теме нет новых непрочитанных сообщений. Легенды о Круге [01-04 из 04] (2012) BDRip-AVC от Youtracker

631 | 20

3.65 ГБ

В этой теме нет новых непрочитанных сообщений. Легенды о Круге [01-04 из 04] (2012) BDRip от Youtracker

968 | 107

3.1 ГБ

В этой теме нет новых непрочитанных сообщений. Легенды о Круге [01-04 из 04] (2012) HDTV 1080i от Youtracker

1 | 25

11.19 ГБ

В этой теме нет новых непрочитанных сообщений. Легенды о Круге [01-04 из 04] (2012) Blu-ray 1080i от Youtracker и HDCLUB

0 | 4

42.91 ГБ

В этой теме нет новых непрочитанных сообщений. Легенды о Круге [01-04 из 04] (2012) BDRip 720p от Youtracker

69 | 3

9.4 ГБ

В этой теме нет новых непрочитанных сообщений. Легенды о Круге [01-04 из 04] (2012) BDRemux 1080i от Youtracker

0 | 3

40.68 ГБ




Вы не можете начинать темы
Вы не можете отвечать на сообщения
Вы не можете редактировать свои сообщения
Вы не можете удалять свои сообщения
Вы не можете добавлять вложения

Перейти:  
Для Мосгорсуда, Роскомнадзора и рекламодателей: mosgorsud-torrent[собачка]yandex.ru
 Вход
ppkBB3cker v.2 © 2008-2014 @ PPK
[ Time : 0.030s | 14 Queries | GZIP : Off ]

Торрент трекер RUTOR.IN, Не можете зайти на rutor.org? Какой новый адрес рутор? Какое зеркало рутор? Не работает rutor.org и зеркала? Тогда наш торрент специально для вас. Rutor.in неофициальное зеркало rutor. В случае если у Вас заблокирован rutor или вдруг Вы не можете на него зайти, то Вы без труда сможете скачать бесплатно и без рекламы последние новинки кино, игр, сериалов и прочего у нас, на Rutor.in. Не нужно использовать прокси, чтобы зайти на рутор, достаточно воспользоваться нашим ресурсом. Все новые фильмы, игры, сериалы, книги и музыка за 2013 и 2014 годы через торрент бесплатно. Скачивайте фильмы в хорошем качестве, игры для пк, xbox, playstation без регистрации. У нас вы найдете новые Зарубежные сериалы и Русские сериалы 2013, 2014, 2015 годов. Оставайтесь с нами, качайте любимые фильмы, игры, сериалы, книги и музыку.