img image001 image001 image001 image001 image001 image001 image001 image001 image001 image001 image001 image001 image001 image001 image001

Planets Sun Sun Sun
Статистика раздачи
Автор: Снежана | Размер: 4 ГБ | Добавлен: 26 июл 2013
Раздают: 106    Качают: 25
Скачать торрент
Скачать торрент
Описание торрента

СообщениеДобавлено: 26 июл 2013 

#77

Информация о фильме
Название: Сверхъестественное
Оригинальное название: Supernatural
Год выхода: 2006
Жанр: Ужасы, триллер, драма, детектив
Режиссер: Эрик Крипе, Сера Гэмбл, Бен Эдлунд
В ролях: Джаред Падалеки, Дженсен Эклес, Алона Тал, Эми Эккер, Брук Невин

О фильме:
Два брата Дин и Сэм Винчестеры путешествуют по стране в поисках своего пропавшего отца, встречая на своём пути разную нечисть и сражаясь с ней. Когда братья были совсем маленькими, их мать погибла при ужасных и необъяснимых обстоятельствах. С тех пор отец Дина и Сэма посвящаяет себя поискам той нечисти по вине которой погибла его любимая жена. Сыновья становятся ему помощниками. Повзрослев Сэм решает отдалиться от постоянной борьбы со сверъестественным и начать нормальную жизнь, поступить в университет. Но в его жизнь врывается брат Дин, который сообщает, что отец пропал и от него нет вестей уже несколько дней. Сэм решает согласиться на небольшое путешествие, но только на пару дней. Вот только пар дней для этого дела окажется мало...



Страна: США
Продолжительность: 22 х ~00:42:00
Перевод: Дублированный [РЕН-ТВ]

Файл
Формат: MP4
Качество: HDRip | КПК
Видео: MPEG-4 AVC (x264), 640x360, ~500 kbps, 23.976 fps
Аудио: AAC LC, 48.0 KHz, 2 ch, 128 Kbps
Субтитры: Нет

Семпл


K:киноSverhestestvennoe.AVC.KPK.GeneralfilmSverhestestvennoe.Sezon2.2006.AVC.HDRip.KPK.GeneralfilmSverhestestvennoe.s02e04.2006..AVC.HDRip.KPK.Generalfilm.mp4
General
Complete name : K:киноSverhestestvennoe.AVC.KPK.GeneralfilmSverhestestvennoe.Sezon2.2006.AVC.HDRip.KPK.GeneralfilmSverhestestvennoe.s02e04.2006..AVC.HDRip.KPK.Generalfilm.mp4
Format : MPEG-4
Format profile : Base Media
Codec ID : isom
File size : 190 MiB
Duration : 42mn 14s
Overall bit rate mode : Variable
Overall bit rate : 630 Kbps
Encoded date : UTC 2013-05-23 10:24:34
Tagged date : UTC 2013-05-23 10:24:34
Video #1
ID : 1
Format : AVC
Format/Info : Advanced Video Codec
Format profile : Baseline@L4.1
Format settings, CABAC : No
Format settings, ReFrames : 6 frames
Codec ID : avc1
Codec ID/Info : Advanced Video Coding
Duration : 42mn 14s
Bit rate : 500 Kbps
Maximum bit rate : 4 309 Kbps
Width : 640 pixels
Height : 360 pixels
Display aspect ratio : 16:9
Frame rate mode : Constant
Frame rate : 23.976 fps
Color space : YUV
Chroma subsampling : 4:2:0
Bit depth : 8 bits
Scan type : Progressive
Bits/(Pixel*Frame) : 0.091
Stream size : 151 MiB (79%)
Writing library : x264 core 119 r2106 07efeb4
Encoding settings : cabac=0 / ref=6 / deblock=1:-1:-1 / analyse=0x1:0x111 / me=umh / subme=7 / psy=1 / psy_rd=1.00:0.00 / mixed_ref=0 / me_range=16 / chroma_me=1 / trellis=1 / 8x8dct=0 / cqm=0 / deadzone=21,11 / fast_pskip=0 / chroma_qp_offset=-2 / threads=3 / sliced_threads=0 / nr=0 / decimate=1 / interlaced=0 / bluray_compat=0 / constrained_intra=0 / bframes=0 / weightp=0 / keyint=250 / keyint_min=23 / scenecut=40 / intra_refresh=0 / rc_lookahead=60 / rc=2pass / mbtree=1 / bitrate=500 / ratetol=1.0 / qcomp=0.60 / qpmin=0 / qpmax=69 / qpstep=4 / cplxblur=20.0 / qblur=0.5 / ip_ratio=1.40 / aq=1:1.00
Encoded date : UTC 2013-05-23 10:24:34
Tagged date : UTC 2013-05-23 10:25:06
Audio #2
ID : 2
Format : AAC
Format/Info : Advanced Audio Codec
Format profile : LC
Codec ID : 40
Duration : 42mn 14s
Bit rate mode : Variable
Bit rate : 128 Kbps
Maximum bit rate : 149 Kbps
Channel(s) : 2 channels
Channel positions : Front: L R
Sampling rate : 48.0 KHz
Compression mode : Lossy
Stream size : 38.7 MiB (20%)
Encoded date : UTC 2013-05-23 10:25:00
Tagged date : UTC 2013-05-23 10:25:06

Релиз от:



   Похожие торренты   Торрент   Размер 
В этой теме нет новых непрочитанных сообщений. Сверхъестественное / Supernatural [S01] (2005-2006) HDRip от Generalfilm | КПК | D

37 | 14

4.13 ГБ

В этой теме нет новых непрочитанных сообщений. Сверхъестественное / Supernatural [S03] (2007-2008) HDRip от Generalfilm | КПК | D

106 | 24

2.87 ГБ

В этой теме нет новых непрочитанных сообщений. Сверхъестественное / Supernatural [S02] (2006-2007) DVDRip | Дубляж Рен-ТВ

903 | 184

7.58 ГБ

В этой теме нет новых непрочитанных сообщений. Сверхъестественное / Supernatural [S04] (2008-2009) HDRip от Generalfilm | КПК | D

111 | 15

4.07 ГБ

В этой теме нет новых непрочитанных сообщений. Сверхъестественное / Supernatural [S05] (2009-2010) HDRip от Generalfilm | КПК | D

110 | 30

4.03 ГБ

В этой теме нет новых непрочитанных сообщений. Сверхъестественное / Supernatural [S01-11] (2005-2016) HDRip, WEB-DLRip от Generalfilm | КПК | NovaFilm

71 | 134

44.52 ГБ

В этой теме нет новых непрочитанных сообщений. Сверхъестественное / Supernatural [S01-09] (2005-2014) HDRip, WEB-DLRip от Generalfilm | КПК | NovaFilm

163 | 248

35.94 ГБ




Вы не можете начинать темы
Вы не можете отвечать на сообщения
Вы не можете редактировать свои сообщения
Вы не можете удалять свои сообщения
Вы не можете добавлять вложения

Перейти:  
Для Мосгорсуда, Роскомнадзора и рекламодателей: mosgorsud-torrent[собачка]yandex.ru
 Вход
ppkBB3cker v.2 © 2008-2014 @ PPK
[ Time : 0.073s | 16 Queries | GZIP : Off ]

Торрент трекер RUTOR.IN, Не можете зайти на rutor.org? Какой новый адрес рутор? Какое зеркало рутор? Не работает rutor.org и зеркала? Тогда наш торрент специально для вас. Rutor.in неофициальное зеркало rutor. В случае если у Вас заблокирован rutor или вдруг Вы не можете на него зайти, то Вы без труда сможете скачать бесплатно и без рекламы последние новинки кино, игр, сериалов и прочего у нас, на Rutor.in. Не нужно использовать прокси, чтобы зайти на рутор, достаточно воспользоваться нашим ресурсом. Все новые фильмы, игры, сериалы, книги и музыка за 2013 и 2014 годы через торрент бесплатно. Скачивайте фильмы в хорошем качестве, игры для пк, xbox, playstation без регистрации. У нас вы найдете новые Зарубежные сериалы и Русские сериалы 2013, 2014, 2015 годов. Оставайтесь с нами, качайте любимые фильмы, игры, сериалы, книги и музыку.