img image001 image001 image001 image001 image001 image001 image001 image001 image001 image001 image001 image001 image001 image001 image001

Planets Sun Sun Sun
Статистика раздачи
Автор: Снежана | Размер: 2.87 ГБ | Добавлен: 25 июл 2013
Раздают: 106    Качают: 24
Скачать торрент
Скачать торрент
Описание торрента

СообщениеДобавлено: 25 июл 2013 

#77

Информация о фильме
Название: Сверхъестественное
Оригинальное название: Supernatural
Год выхода: 2007
Жанр: Ужасы, триллер, драма, детектив
Режиссер: Эрик Крипе, Сера Гэмбл, Бен Эдлунд
В ролях: Джаред Падалеки, Дженсен Эклес, Алона Тал, Эми Эккер, Брук Невин

О фильме:
Со злейшим врагом рода человеческого и семьи Винчестеров в частности - Желтоглазым демоном покончено. Но врата ада были открыты и шоу под названием "Апокалипсис" уже началось - сотни демонов вырвались на свободу, над миром нависла серьезная угроза. И снова у братьев Винчестеров полно работы. А время неумолимо бежит вперед, отсчитывая 365 дней, оставшихся у Дина, после сделки с Красноглазой демоншей, вернувшей к жизни его брата.



Страна: США
Продолжительность: 16 х ~00:42:00
Перевод: Дублированный [РЕН-ТВ]

Файл
Формат: MP4
Качество: HDRip | КПК
Видео: MPEG-4 AVC (x264), 640x360, ~500 kbps, 23.976 fps
Аудио: AAC LC, 48.0 KHz, 2 ch, 128 Kbps
Субтитры: Нет

Семпл


K:киноSverhestestvennoe.AVC.KPK.GeneralfilmSverhestestvennoe.Sezon3.2007.AVC.HDRip.KPK.GeneralfilmSverhestestvennoe.s03e02.2007.AVC.HDRip.KPK.Generalfilm.mp4
Format : MPEG-4
Format profile : Base Media
Codec ID : isom
File size : 190 MiB
Duration : 42mn 11s
Overall bit rate mode : Variable
Overall bit rate : 630 Kbps
Encoded date : UTC 2013-05-26 17:52:54
Tagged date : UTC 2013-05-26 17:52:54
Video #1
ID : 1
Format : AVC
Format/Info : Advanced Video Codec
Format profile : Baseline@L4.1
Format settings, CABAC : No
Format settings, ReFrames : 6 frames
Codec ID : avc1
Codec ID/Info : Advanced Video Coding
Duration : 42mn 11s
Bit rate : 500 Kbps
Maximum bit rate : 2 454 Kbps
Width : 640 pixels
Height : 360 pixels
Display aspect ratio : 16:9
Frame rate mode : Constant
Frame rate : 23.976 fps
Color space : YUV
Chroma subsampling : 4:2:0
Bit depth : 8 bits
Scan type : Progressive
Bits/(Pixel*Frame) : 0.091
Stream size : 151 MiB (79%)
Writing library : x264 core 116 r2074 2641b9e
Encoding settings : cabac=0 / ref=6 / deblock=1:-1:-1 / analyse=0x1:0x111 / me=umh / subme=7 / psy=1 / psy_rd=1.00:0.00 / mixed_ref=0 / me_range=16 / chroma_me=1 / trellis=1 / 8x8dct=0 / cqm=0 / deadzone=21,11 / fast_pskip=0 / chroma_qp_offset=-2 / threads=3 / sliced_threads=0 / nr=0 / decimate=1 / interlaced=0 / bluray_compat=0 / constrained_intra=0 / bframes=0 / weightp=0 / keyint=250 / keyint_min=23 / scenecut=40 / intra_refresh=0 / rc_lookahead=60 / rc=2pass / mbtree=1 / bitrate=500 / ratetol=1.0 / qcomp=0.60 / qpmin=0 / qpmax=69 / qpstep=4 / cplxblur=20.0 / qblur=0.5 / ip_ratio=1.40 / aq=1:1.00
Encoded date : UTC 2013-05-26 17:52:54
Tagged date : UTC 2013-05-26 17:52:58
Audio #2
ID : 2
Format : AAC
Format/Info : Advanced Audio Codec
Format profile : LC
Codec ID : 40
Duration : 42mn 11s
Bit rate mode : Variable
Bit rate : 128 Kbps
Maximum bit rate : 152 Kbps
Channel(s) : 2 channels
Channel positions : Front: L R
Sampling rate : 48.0 KHz
Compression mode : Lossy
Stream size : 38.6 MiB (20%)
Encoded date : UTC 2013-05-26 17:52:58
Tagged date : UTC 2013-05-26 17:52:58

Релиз от:



   Похожие торренты   Торрент   Размер 
В этой теме нет новых непрочитанных сообщений. Сверхъестественное / Supernatural [S02] (2006-2007) HDRip от Generalfilm | КПК | D

106 | 25

4 ГБ

В этой теме нет новых непрочитанных сообщений. Сверхъестественное / Supernatural [S04] (2008-2009) HDRip от Generalfilm | КПК | D

111 | 15

4.07 ГБ

В этой теме нет новых непрочитанных сообщений. Сверхъестественное / Supernatural [S03] (2007-2008) HDTVRip | NovaFiLM

434 | 72

5.47 ГБ

В этой теме нет новых непрочитанных сообщений. Сверхъестественное / Supernatural [S05] (2009-2010) HDRip от Generalfilm | КПК | D

110 | 30

4.03 ГБ

В этой теме нет новых непрочитанных сообщений. Сверхъестественное / Supernatural [S01] (2005-2006) HDRip от Generalfilm | КПК | D

37 | 14

4.13 ГБ

В этой теме нет новых непрочитанных сообщений. Сверхъестественное / Supernatural [S01-11] (2005-2016) HDRip, WEB-DLRip от Generalfilm | КПК | NovaFilm

62 | 126

44.52 ГБ

В этой теме нет новых непрочитанных сообщений. Сверхъестественное / Supernatural [S01-10] (2005-2015) HDRip, WEB-DLRip от Generalfilm | КПК | NovaFilm

200 | 375

40.22 ГБ




Вы не можете начинать темы
Вы не можете отвечать на сообщения
Вы не можете редактировать свои сообщения
Вы не можете удалять свои сообщения
Вы не можете добавлять вложения

Перейти:  
Для Мосгорсуда, Роскомнадзора и рекламодателей: mosgorsud-torrent[собачка]yandex.ru
 Вход
ppkBB3cker v.2 © 2008-2014 @ PPK
[ Time : 0.050s | 15 Queries | GZIP : Off ]

Торрент трекер RUTOR.IN, Не можете зайти на rutor.org? Какой новый адрес рутор? Какое зеркало рутор? Не работает rutor.org и зеркала? Тогда наш торрент специально для вас. Rutor.in неофициальное зеркало rutor. В случае если у Вас заблокирован rutor или вдруг Вы не можете на него зайти, то Вы без труда сможете скачать бесплатно и без рекламы последние новинки кино, игр, сериалов и прочего у нас, на Rutor.in. Не нужно использовать прокси, чтобы зайти на рутор, достаточно воспользоваться нашим ресурсом. Все новые фильмы, игры, сериалы, книги и музыка за 2013 и 2014 годы через торрент бесплатно. Скачивайте фильмы в хорошем качестве, игры для пк, xbox, playstation без регистрации. У нас вы найдете новые Зарубежные сериалы и Русские сериалы 2013, 2014, 2015 годов. Оставайтесь с нами, качайте любимые фильмы, игры, сериалы, книги и музыку.
cron