img image001 image001 image001 image001 image001 image001 image001 image001 image001 image001 image001 image001 image001 image001 image001

Planets Sun Sun Sun
Статистика раздачи
Автор: Снежана | Размер: 4.07 ГБ | Добавлен: 25 июл 2013
Раздают: 60    Качают: 52
Скачать торрент
Скачать торрент
Описание торрента

СообщениеДобавлено: 25 июл 2013 

#77

Информация о фильме
Название: Спартак: Кровь и песок
Оригинальное название: Spartacus: Blood and Sand
Год выхода: 2010
Жанр: Боевик, драма, приключения
Режиссер: Джесси Уарн, Майкл Херст, Рик Джейкобсон
В ролях: Ману Беннетт, Питер Менса, Ник Тарабэй, Вива Скубижевски, Джей Кортни, Лесли-Энн Брандт, Эрин Каммингс, Энди Уитфилд, Джон Ханна, Крэйг Паркер

О фильме:
Предан своей страной. Отдан в рабство. Перерожден воином. «Спартак: Кровь и песок» — это жесткий и выразительный рассказ о самом знаменитом из римских гладиаторов. Спартака разлучили с любовью всей его жизни и заставили выходить на арену, где смерть — лучшее развлечение для толпы. Спартак должен бороться за выживание, подружиться с врагами, и усвоить политику нового мира жестокости, секса и славы. Его будут соблазнять властью и изводить местью. Но его страсть даст ему силы преодолеть все испытания в этой истории о смерти, чести и стойкости...
Страна: США
Студия: Starz Media
Продолжительность серии: ~55 мин.
Перевод: Дублированный (многоголосый закадровый) (студия Кравец)

Файл
Кодек: H264 (AVC)
Качество: BDRip
Видео: AVC at ~1085 Кбит/сек, 640 x 352 (1.778) at 23.976 fps
Звук: AAC at 128 Кбит/сек, 2 канала, 48,0 КГц
Субтитры: Отсутствуют

Код:
General
Complete name                            : Спартак сезон 1 часть 01.mp4
Format                                   : MPEG-4
Format profile                           : Base Media
Codec ID                                 : isom
File size                                : 429 MiB
Duration                                 : 54mn 56s
Overall bit rate                         : 1 091 Kbps
Encoded date                             : UTC 2011-01-06 08:01:44
Tagged date                              : UTC 2011-01-06 08:01:44
Writing application                      : XviD4PSP 6.0 / 54.29.105

Video
ID                                       : 1
Format                                   : AVC
Format/Info                              : Advanced Video Codec
Format profile                           : Main@L4.1
Format settings, CABAC                   : Yes
Format settings, ReFrames                : 3 frames
Codec ID                                 : avc1
Codec ID/Info                            : Advanced Video Coding
Duration                                 : 54mn 56s
Bit rate                                 : 958 Kbps
Width                                    : 640 pixels
Height                                   : 352 pixels
Display aspect ratio                     : 16:9
Frame rate mode                          : Constant
Frame rate                               : 23.976 fps
Color space                              : YUV
Chroma subsampling                       : 4:2:0
Bit depth                                : 8 bits
Scan type                                : Progressive
Bits/(Pixel*Frame)                       : 0.177
Stream size                              : 376 MiB (88%)
Writing library                          : x264 core 128 r2216M 198a7ea
Encoding settings                        : cabac=1 / ref=3 / deblock=1:0:0 / analyse=0x1:0x131 / me=hex / subme=7 / psy=1 / psy_rd=1.00:0.20 / mixed_ref=1 / me_range=16 / chroma_me=1 / trellis=1 / 8x8dct=0 / cqm=0 / deadzone=21,11 / fast_pskip=1 / chroma_qp_offset=-3 / threads=8 / lookahead_threads=1 / sliced_threads=0 / nr=0 / decimate=1 / interlaced=0 / bluray_compat=0 / constrained_intra=0 / bframes=3 / b_pyramid=0 / b_adapt=2 / b_bias=0 / direct=3 / weightb=1 / open_gop=0 / weightp=0 / keyint=230 / keyint_min=23 / scenecut=40 / intra_refresh=0 / rc_lookahead=40 / rc=crf / mbtree=1 / crf=20.0 / qcomp=0.60 / qpmin=10 / qpmax=51 / qpstep=4 / vbv_maxrate=5000 / vbv_bufsize=1835 / crf_max=30.0 / nal_hrd=none / ip_ratio=1.40 / aq=1:1.00
Encoded date                             : UTC 2011-01-06 08:01:44
Tagged date                              : UTC 2011-01-06 08:01:44

Audio
ID                                       : 2
Format                                   : AAC
Format/Info                              : Advanced Audio Codec
Format profile                           : LC
Codec ID                                 : 40
Duration                                 : 54mn 56s
Bit rate mode                            : Constant
Bit rate                                 : 128 Kbps
Channel(s)                               : 2 channels
Channel positions                        : Front: L R
Sampling rate                            : 48.0 KHz
Compression mode                         : Lossy
Delay relative to video                  : 42ms
Stream size                              : 50.3 MiB (12%)
Encoded date                             : UTC 2011-01-06 08:01:44
Tagged date                              : UTC 2011-01-06 08:01:44




   Похожие торренты   Торрент   Размер 
В этой теме нет новых непрочитанных сообщений. Спартак: кровь и песок / Spartacus: Blood and Sand + Спартак: Боги Арены / Spartacus: Gods of the Arena [s01] (2010-2011) HDTVRip-AVC

82 | 36

17.03 ГБ

В этой теме нет новых непрочитанных сообщений. Спартак: Кровь и Песок / Spartacus: Blood and Sand [S01] (2010) BDRip от HQ-ViDEO

47 | 22

13.52 ГБ

В этой теме нет новых непрочитанных сообщений. Спартак: кровь и песок / Spartacus: Blood and Sand [S1] (2010) BDRip от HELLYWOOD

2 | 3

13.83 ГБ

В этой теме нет новых непрочитанных сообщений. Спартак: кровь и песок / Spartacus: Blood and Sand (2010) BDRip 1080p

32 | 61

69.76 ГБ

В этой теме нет новых непрочитанных сообщений. Спартак: Кровь и Песок / Spartacus: Blood and Sand [Сезон 1] (2010) BDRip от HQCLUB

425 | 77

11.35 ГБ

В этой теме нет новых непрочитанных сообщений. Спартак: Кровь и песок / Spartacus: Blood and Sand [01x07-13] (2010) BDRip 720p

3 | 9

15.63 ГБ

В этой теме нет новых непрочитанных сообщений. Спартак: Кровь и песок / Spartacus: Blood and Sand [13 серии из 13] (2010) BDRip-AVC от Dmitroo

141 | 19

12.65 ГБ




Вы не можете начинать темы
Вы не можете отвечать на сообщения
Вы не можете редактировать свои сообщения
Вы не можете удалять свои сообщения
Вы не можете добавлять вложения

Перейти:  
Для Мосгорсуда, Роскомнадзора и рекламодателей: mosgorsud-torrent[собачка]yandex.ru
 Вход
ppkBB3cker v.2 © 2008-2014 @ PPK
[ Time : 0.034s | 14 Queries | GZIP : Off ]

Торрент трекер RUTOR.IN, Не можете зайти на rutor.org? Какой новый адрес рутор? Какое зеркало рутор? Не работает rutor.org и зеркала? Тогда наш торрент специально для вас. Rutor.in неофициальное зеркало rutor. В случае если у Вас заблокирован rutor или вдруг Вы не можете на него зайти, то Вы без труда сможете скачать бесплатно и без рекламы последние новинки кино, игр, сериалов и прочего у нас, на Rutor.in. Не нужно использовать прокси, чтобы зайти на рутор, достаточно воспользоваться нашим ресурсом. Все новые фильмы, игры, сериалы, книги и музыка за 2013 и 2014 годы через торрент бесплатно. Скачивайте фильмы в хорошем качестве, игры для пк, xbox, playstation без регистрации. У нас вы найдете новые Зарубежные сериалы и Русские сериалы 2013, 2014, 2015 годов. Оставайтесь с нами, качайте любимые фильмы, игры, сериалы, книги и музыку.